<?xml version="1.0" standalone="no"?>
<!DOCTYPE svg PUBLIC "-//W3C//DTD SVG 1.1//EN" "http://www.w3.org/Graphics/SVG/1.1/DTD/svg11.dtd" >
<svg xmlns="http://www.w3.org/2000/svg" xmlns:xlink="http://www.w3.org/1999/xlink" version="1.1">
<metadata>
Created by FontForge 20161116 at Tue Jun 27 14:47:26 2017
 By Jimmy Wärting
Generated in 2013 by FontLab Studio. Copyright info pending.
</metadata>
<defs>
<font id="CircularStd-Bold" horiz-adv-x="578" >
  <font-face 
    font-family="CircularStd"
    font-weight="700"
    font-stretch="normal"
    units-per-em="1000"
    panose-1="2 11 8 4 2 1 1 1 1 2"
    ascent="809"
    descent="-191"
    x-height="492"
    cap-height="709"
    bbox="-55 -252 1548 997"
    underline-thickness="80"
    underline-position="-195"
    stemh="117"
    stemv="133"
    unicode-range="U+000D-FEFF"
  />
<missing-glyph horiz-adv-x="584" 
d="M71 0v709h442v-709h-442zM180 109h224v491h-224v-491z" />
    <glyph glyph-name="f_f" unicode="ff" horiz-adv-x="680" 
d="M553 546v-54h111v-114h-111v-378h-133v378h-190v-378h-134v378h-82v114h82v56c0 111 70 183 179 183c28 0 55 -5 66 -10v-112c-7 2 -20 5 -42 5c-29 0 -69 -13 -69 -68v-54h190v56c0 111 70 183 179 183c28 0 55 -5 66 -10v-112c-7 2 -20 5 -42 5c-29 0 -69 -13 -70 -68z
" />
    <glyph glyph-name="f_f_i" unicode="ffi" horiz-adv-x="957" 
d="M737 654c0 46 36 83 81 83c46 0 83 -37 83 -83c0 -45 -37 -81 -83 -81c-45 0 -81 36 -81 81zM420 492v58c0 110 70 181 178 181c28 0 55 -5 66 -10v-112c-7 2 -20 5 -42 5c-29 0 -69 -13 -69 -68v-54h332v-492h-133v378h-199v-378h-133v378h-190v-378h-134v378h-82v114
h82v56c0 111 70 183 179 183c28 0 55 -5 66 -10v-112c-7 2 -20 5 -42 5c-29 0 -69 -13 -69 -68v-54h190z" />
    <glyph glyph-name="f_f_l" unicode="ffl" horiz-adv-x="957" 
d="M420 548c0 112 70 183 178 183c28 0 55 -5 66 -10v-112c-7 2 -20 5 -42 5c-29 0 -69 -13 -69 -68v-54h200v232h133v-724h-133v378h-200v-378h-133v378h-190v-378h-134v378h-82v114h82v56c0 111 70 183 179 183c28 0 55 -5 66 -10v-112c-7 2 -20 5 -42 5
c-29 0 -69 -13 -69 -68v-54h190v56z" />
    <glyph glyph-name="f_i" unicode="fi" horiz-adv-x="631" 
d="M427 378h-197v-378h-134v378h-82v114h82v56c0 111 70 183 179 183c28 0 55 -5 66 -10v-112c-7 2 -20 5 -42 5c-29 0 -69 -13 -69 -68v-54h329v-492h-132v378zM411 654c0 46 37 83 82 83s82 -37 82 -83c0 -45 -37 -81 -82 -81s-82 36 -82 81z" />
    <glyph glyph-name="f_l" unicode="fl" horiz-adv-x="630" 
d="M299 614c-29 0 -69 -13 -69 -68v-54h196v232h133v-724h-133v378h-196v-378h-134v378h-82v114h82v56c0 111 70 183 179 183c28 0 55 -5 66 -10v-112c-7 2 -20 5 -42 5z" />
    <glyph glyph-name=".notdef" horiz-adv-x="584" 
d="M71 0v709h442v-709h-442zM180 109h224v491h-224v-491z" />
    <glyph glyph-name=".null" horiz-adv-x="0" 
 />
    <glyph glyph-name=".null" horiz-adv-x="0" 
 />
    <glyph glyph-name="uni000D" unicode="&#xd;" horiz-adv-x="247" 
 />
    <glyph glyph-name="space" unicode=" " horiz-adv-x="247" 
 />
    <glyph glyph-name="exclam" unicode="!" horiz-adv-x="334" 
d="M247 709l-32 -493h-97l-32 493h161zM88 71c0 44 35 80 78 80c44 0 80 -36 80 -80s-36 -79 -80 -79c-43 0 -78 35 -78 79z" />
    <glyph glyph-name="quotedbl" unicode="&#x22;" horiz-adv-x="402" 
d="M34 584c0 44 32 76 75 76s74 -32 74 -76c0 -8 -2 -20 -4 -26l-47 -183h-47l-47 183c-1 5 -4 17 -4 26zM219 584c0 44 32 76 75 76s74 -32 74 -76c0 -8 -2 -20 -4 -26l-47 -183h-47l-47 183c-1 5 -4 17 -4 26z" />
    <glyph glyph-name="numbersign" unicode="#" horiz-adv-x="742" 
d="M91 396v96h143l34 156h105l-34 -156h131l34 156h104l-34 -156h127v-96h-147l-30 -140h127v-95h-148l-34 -161h-104l34 161h-131l-34 -161h-105l34 161h-122v95h143l30 140h-123zM319 396l-30 -140h131l30 140h-131z" />
    <glyph glyph-name="dollar" unicode="$" horiz-adv-x="596" 
d="M360 -117h-102v107c-139 19 -205 120 -214 205l124 30c6 -63 48 -121 140 -121c65 0 103 31 103 75c0 34 -25 60 -75 71l-92 20c-108 24 -175 92 -175 188c0 106 82 184 189 201v107h102v-110c115 -21 165 -101 179 -168l-123 -35c-6 35 -32 93 -114 93
c-64 0 -99 -37 -99 -78c0 -31 22 -57 69 -67l91 -21c126 -28 183 -103 183 -193c0 -92 -66 -177 -186 -196v-108z" />
    <glyph glyph-name="percent" unicode="%" horiz-adv-x="854" 
d="M144 496c0 -42 29 -70 66 -70c38 0 66 29 66 70s-28 69 -66 69c-37 0 -66 -28 -66 -69zM44 496c0 92 76 164 166 164s167 -72 167 -164c0 -93 -77 -163 -167 -163c-91 0 -166 72 -166 163zM581 152c0 -42 29 -70 66 -70c38 0 66 29 66 70s-28 69 -66 69
c-37 0 -66 -28 -66 -69zM481 152c0 92 76 164 166 164s167 -72 167 -164c0 -93 -77 -163 -167 -163c-91 0 -166 72 -166 163zM258 0h-116l458 649h116z" />
    <glyph glyph-name="ampersand" unicode="&#x26;" horiz-adv-x="717" 
d="M545 0l-73 77c-53 -54 -114 -90 -190 -90c-139 0 -215 95 -215 190c0 88 47 139 121 194l5 3l-11 12c-34 36 -78 90 -78 154c0 119 100 185 196 185c113 0 197 -73 197 -179c0 -72 -49 -124 -100 -162l-27 -20l107 -113l179 187v-166l-99 -104l160 -168h-172zM284 103
c43 0 74 23 108 59l-121 128l-15 -11c-34 -25 -57 -52 -57 -94c0 -41 33 -82 85 -82zM230 544c0 -30 24 -59 42 -77l19 -21l35 26c33 24 45 49 45 75c0 38 -30 68 -72 68c-33 0 -69 -23 -69 -71z" />
    <glyph glyph-name="quotesingle" unicode="'" horiz-adv-x="217" 
d="M34 584c0 44 32 76 75 76s74 -32 74 -76c0 -8 -2 -20 -4 -26l-47 -183h-47l-47 183c-1 5 -4 17 -4 26z" />
    <glyph glyph-name="parenleft" unicode="(" horiz-adv-x="330" 
d="M43 322c0 229 93 382 210 497l77 -71c-107 -114 -175 -246 -175 -426s68 -313 175 -427l-77 -70c-117 114 -210 268 -210 497z" />
    <glyph glyph-name="parenright" unicode=")" horiz-adv-x="330" 
d="M287 322c0 -229 -93 -383 -210 -497l-77 70c107 114 175 247 175 427s-68 312 -175 426l77 71c117 -115 210 -268 210 -497z" />
    <glyph glyph-name="asterisk" unicode="*" horiz-adv-x="455" 
d="M281 709v-127l116 39l33 -98l-118 -38l74 -100l-83 -61l-76 101l-74 -101l-83 62l73 99l-118 38l32 98l117 -39v127h107z" />
    <glyph glyph-name="plus" unicode="+" horiz-adv-x="589" 
d="M49 349h189v195h112v-195h190v-109h-190v-196h-112v196h-189v109z" />
    <glyph glyph-name="comma" unicode="," horiz-adv-x="312" 
d="M61 80c0 48 39 84 91 84c62 0 99 -50 99 -115c0 -147 -102 -209 -176 -218v64c45 10 93 53 95 108c-4 -3 -15 -6 -26 -6c-49 0 -83 35 -83 83z" />
    <glyph glyph-name="hyphen" unicode="-" horiz-adv-x="380" 
d="M335 238h-290v118h290v-118z" />
    <glyph glyph-name="period" unicode="." horiz-adv-x="311" 
d="M64 84c0 50 41 91 91 91c51 0 92 -41 92 -91s-41 -91 -92 -91c-50 0 -91 41 -91 91z" />
    <glyph glyph-name="slash" unicode="/" horiz-adv-x="475" 
d="M475 718l-355 -727h-120l354 727h121z" />
    <glyph glyph-name="zero" unicode="0" horiz-adv-x="624" 
d="M179 324c0 -68 10 -126 35 -165c20 -32 51 -53 98 -53c48 0 77 21 97 53c26 39 36 97 36 165s-10 126 -36 165c-20 32 -49 53 -97 53c-47 0 -78 -21 -98 -53c-25 -39 -35 -97 -35 -165zM41 324c0 83 13 164 57 231c43 64 113 109 214 109s171 -45 213 -109
c44 -67 58 -148 58 -231s-14 -164 -58 -231c-42 -64 -112 -109 -213 -109s-171 45 -214 109c-44 67 -57 148 -57 231z" />
    <glyph glyph-name="one" unicode="1" horiz-adv-x="396" 
d="M324 0h-137v434h-156v93c95 1 161 54 174 122h119v-649z" />
    <glyph glyph-name="two" unicode="2" horiz-adv-x="543" 
d="M173 398l-131 4c-2 9 -5 29 -5 45c0 114 86 217 237 217c145 0 234 -96 234 -209c0 -84 -46 -152 -126 -201l-125 -76c-25 -16 -46 -34 -56 -59h311v-119h-480c1 114 37 207 153 277l107 64c55 33 77 67 77 112c0 47 -33 89 -98 89c-69 0 -103 -47 -103 -108
c0 -12 2 -25 5 -36z" />
    <glyph glyph-name="three" unicode="3" horiz-adv-x="549" 
d="M214 288l-61 96l170 146h-284v119h459v-111l-168 -140c98 -4 188 -79 188 -198c0 -112 -92 -215 -249 -215c-151 0 -243 98 -251 207l133 26c3 -66 50 -114 118 -114c69 0 110 44 110 98c0 61 -44 96 -106 96c-28 0 -45 -5 -59 -10z" />
    <glyph glyph-name="four" unicode="4" horiz-adv-x="597" 
d="M32 139v144l273 366h170v-392h107v-118h-107v-139h-136v139h-307zM339 257v248l-185 -248h185z" />
    <glyph glyph-name="five" unicode="5" horiz-adv-x="554" 
d="M29 182l129 29c3 -60 49 -109 118 -109c62 0 112 41 112 106c0 74 -55 109 -115 109c-44 0 -79 -20 -100 -44c-13 5 -112 39 -126 43l77 333h366v-119h-272l-32 -143c28 26 74 40 117 40c130 0 222 -78 222 -217c0 -121 -93 -226 -249 -226c-141 0 -239 96 -247 198z" />
    <glyph glyph-name="six" unicode="6" horiz-adv-x="582" 
d="M538 634l-38 -112c-28 12 -66 23 -107 23c-110 0 -200 -64 -215 -186c24 36 78 72 154 72c133 0 224 -84 224 -218c0 -133 -108 -228 -251 -228c-142 0 -263 102 -263 298c0 233 146 381 360 381c60 0 109 -14 136 -30zM190 210c0 -66 54 -109 114 -109
c63 0 115 42 115 109s-52 108 -115 108c-62 0 -114 -41 -114 -108z" />
    <glyph glyph-name="seven" unicode="7" horiz-adv-x="503" 
d="M498 649v-115c-49 -42 -231 -207 -260 -534h-143c27 349 244 530 244 530h-334v119h493z" />
    <glyph glyph-name="eight" unicode="8" horiz-adv-x="568" 
d="M284 383c61 1 96 39 96 85c0 43 -35 82 -96 82c-60 0 -95 -39 -95 -82c0 -46 35 -84 95 -85zM284 99c72 0 110 44 110 90c0 47 -37 92 -110 92s-109 -45 -109 -92c0 -46 38 -90 109 -90zM284 -15c-148 0 -245 78 -245 190c0 70 46 132 115 158c-65 24 -102 87 -102 145
c0 109 97 186 232 186s232 -77 232 -186c0 -57 -36 -121 -101 -145c68 -25 114 -88 114 -158c0 -112 -97 -190 -245 -190z" />
    <glyph glyph-name="nine" unicode="9" horiz-adv-x="583" 
d="M53 21l34 111c23 -13 70 -28 115 -28c118 0 197 65 206 184c-27 -41 -82 -70 -150 -70c-121 0 -224 84 -224 218c0 133 105 228 249 228c141 0 259 -100 259 -307c0 -234 -117 -372 -339 -372c-55 0 -116 15 -150 36zM390 440c0 64 -51 107 -112 107
c-60 0 -111 -43 -111 -107c0 -65 50 -107 111 -107s112 43 112 107z" />
    <glyph glyph-name="colon" unicode=":" horiz-adv-x="312" 
d="M67 82c0 50 40 90 89 90c50 0 91 -40 91 -90c0 -49 -41 -89 -91 -89c-49 0 -89 40 -89 89zM66 409c0 50 40 90 89 90c50 0 91 -40 91 -90c0 -49 -41 -89 -91 -89c-49 0 -89 40 -89 89z" />
    <glyph glyph-name="semicolon" unicode=";" horiz-adv-x="314" 
d="M68 75c0 46 37 80 86 80c59 0 94 -48 94 -109c0 -140 -96 -199 -167 -208v61c43 10 89 51 90 103c-3 -3 -14 -6 -24 -6c-47 0 -79 33 -79 79zM67 409c0 50 40 90 89 90c50 0 91 -40 91 -90c0 -49 -41 -89 -91 -89c-49 0 -89 40 -89 89z" />
    <glyph glyph-name="less" unicode="&#x3c;" horiz-adv-x="497" 
d="M35 244v101l430 217v-123l-296 -143l296 -143v-125z" />
    <glyph glyph-name="equal" unicode="=" horiz-adv-x="603" 
d="M544 341h-485v107h485v-107zM544 142h-485v108h485v-108z" />
    <glyph glyph-name="greater" unicode="&#x3e;" horiz-adv-x="497" 
d="M462 345v-100l-430 -217v123l296 143l-296 143v125z" />
    <glyph glyph-name="question" unicode="?" horiz-adv-x="529" 
d="M303 216h-108c-2 13 -4 26 -4 41c0 53 22 102 79 145l48 36c30 22 43 49 43 79c0 46 -33 90 -100 90c-71 0 -102 -57 -102 -113c0 -12 1 -23 4 -32l-126 5c-4 14 -5 30 -5 45c0 108 81 212 229 212c155 0 236 -98 236 -199c0 -79 -40 -135 -99 -177l-41 -29
c-35 -25 -54 -56 -54 -97v-6zM172 71c0 44 35 80 79 80s80 -36 80 -80s-36 -79 -80 -79s-79 35 -79 79z" />
    <glyph glyph-name="at" unicode="@" horiz-adv-x="827" 
d="M589 139c-55 0 -88 28 -97 61c-25 -41 -71 -63 -116 -63c-87 0 -152 71 -152 173c0 131 91 225 197 225c38 0 82 -18 97 -57l8 44h95l-52 -245c-1 -5 -2 -11 -2 -18c0 -17 11 -33 32 -33c49 0 98 72 98 169c0 141 -108 239 -264 239c-167 0 -293 -121 -293 -301
c0 -166 112 -292 301 -292c63 0 128 17 184 59l48 -68c-54 -49 -153 -80 -232 -80c-234 0 -402 152 -402 379c0 233 178 394 393 394c206 0 360 -141 360 -329c0 -152 -100 -255 -203 -257zM496 366c0 48 -24 79 -68 79c-60 0 -101 -59 -101 -126c0 -53 20 -92 71 -92
c55 0 96 59 98 139z" />
    <glyph glyph-name="A" unicode="A" horiz-adv-x="722" 
d="M562 0l-59 162h-288l-59 -162h-146l272 709h160l270 -709h-150zM359 556l-98 -268h196z" />
    <glyph glyph-name="B" unicode="B" horiz-adv-x="610" 
d="M81 709h255c138 0 216 -81 216 -191c0 -73 -44 -132 -103 -152c69 -17 125 -80 125 -168c0 -115 -86 -198 -219 -198h-274v709zM217 416h98c63 0 101 35 101 89s-35 88 -102 88h-97v-177zM217 115h112c67 0 107 35 107 92c0 56 -36 95 -105 95h-114v-187z" />
    <glyph glyph-name="C" unicode="C" horiz-adv-x="764" 
d="M402 -15c-198 0 -363 143 -363 369s171 370 361 370c196 0 297 -120 325 -235l-130 -41c-17 68 -72 143 -195 143c-106 0 -218 -76 -218 -237c0 -151 106 -234 220 -234c121 0 180 79 199 145l129 -39c-27 -109 -129 -241 -328 -241z" />
    <glyph glyph-name="D" unicode="D" horiz-adv-x="724" 
d="M219 128h110c116 0 213 72 213 226s-96 227 -212 227h-111v-453zM334 0h-253v709h254c202 0 350 -131 350 -355s-149 -354 -351 -354z" />
    <glyph glyph-name="E" unicode="E" horiz-adv-x="582" 
d="M525 0h-444v709h444v-130h-306v-162h277v-123h-277v-164h306v-130z" />
    <glyph glyph-name="F" unicode="F" horiz-adv-x="562" 
d="M220 0h-139v709h448v-131h-310v-175h276v-127h-275v-276z" />
    <glyph glyph-name="G" unicode="G" horiz-adv-x="781" 
d="M723 0h-112l-9 81c-32 -48 -102 -96 -209 -96c-191 0 -354 140 -354 369s171 370 363 370c186 0 289 -109 324 -218l-132 -47c-18 63 -77 136 -192 136c-107 0 -223 -73 -223 -241c0 -160 105 -243 224 -243c131 0 182 88 190 138h-224v120h354v-369z" />
    <glyph glyph-name="H" unicode="H" horiz-adv-x="748" 
d="M667 0h-139v294h-309v-294h-138v709h138v-285h309v285h139v-709z" />
    <glyph glyph-name="I" unicode="I" horiz-adv-x="302" 
d="M221 0h-140v709h140v-709z" />
    <glyph glyph-name="J" unicode="J" horiz-adv-x="557" 
d="M20 216v47l133 24v-65c1 -73 42 -106 98 -106c58 0 94 41 94 103v490h138v-490c0 -128 -93 -234 -231 -234c-140 0 -232 92 -232 231z" />
    <glyph glyph-name="K" unicode="K" horiz-adv-x="698" 
d="M513 0l-206 294l-88 -97v-197h-138v709h138v-321l284 321h181l-281 -309l283 -400h-173z" />
    <glyph glyph-name="L" unicode="L" horiz-adv-x="560" 
d="M535 0h-454v709h138v-577h316v-132z" />
    <glyph glyph-name="M" unicode="M" horiz-adv-x="953" 
d="M872 0h-136v497l-204 -497h-115l-204 493v-493h-132v709h182l213 -512l208 512h188v-709z" />
    <glyph glyph-name="N" unicode="N" horiz-adv-x="767" 
d="M686 0h-145l-322 503v-503h-138v709h172l295 -469v469h138v-709z" />
    <glyph glyph-name="O" unicode="O" horiz-adv-x="807" 
d="M182 355c0 -160 112 -236 221 -236c110 0 222 76 222 236s-112 236 -222 236c-109 0 -221 -76 -221 -236zM39 354c0 229 172 370 364 370c193 0 365 -141 365 -370c0 -228 -172 -369 -365 -369c-192 0 -364 141 -364 369z" />
    <glyph glyph-name="P" unicode="P" horiz-adv-x="606" 
d="M220 386h109c69 0 111 40 111 101c0 63 -42 102 -111 102h-109v-203zM346 267h-127v-267h-138v709h265c140 0 233 -93 233 -221c0 -129 -93 -221 -233 -221z" />
    <glyph glyph-name="Q" unicode="Q" horiz-adv-x="807" 
d="M39 354c0 229 172 370 364 370c193 0 365 -141 365 -370c0 -100 -33 -183 -87 -245l85 -94l-91 -78l-87 96c-55 -31 -119 -48 -185 -48c-192 0 -364 141 -364 369zM182 355c0 -160 112 -236 221 -236c31 0 63 6 91 18l-111 122l92 79l111 -124c24 36 39 83 39 141
c0 160 -112 236 -222 236c-109 0 -221 -76 -221 -236z" />
    <glyph glyph-name="R" unicode="R" horiz-adv-x="625" 
d="M431 0l-139 273h-72v-273h-139v709h277c138 0 226 -95 226 -218c0 -99 -58 -174 -151 -201l152 -290h-154zM220 392h112c70 0 111 40 111 98c0 60 -41 99 -111 99h-112v-197z" />
    <glyph glyph-name="S" unicode="S" horiz-adv-x="604" 
d="M558 540l-124 -38c-7 39 -39 100 -129 100c-67 0 -111 -43 -111 -90c0 -39 25 -70 77 -80l99 -19c129 -25 198 -109 198 -209c0 -109 -91 -219 -256 -219c-188 0 -271 121 -282 222l128 34c6 -70 55 -133 155 -133c74 0 115 37 115 87c0 41 -31 73 -86 84l-99 20
c-113 23 -186 96 -186 203c0 126 113 222 247 222c172 0 238 -104 254 -184z" />
    <glyph glyph-name="T" unicode="T" horiz-adv-x="619" 
d="M603 578h-224v-578h-139v578h-224v131h587v-131z" />
    <glyph glyph-name="U" unicode="U" horiz-adv-x="693" 
d="M346 -16c-151 0 -272 93 -272 267v458h138v-448c0 -93 52 -142 134 -142c84 0 135 49 135 142v448h138v-458c0 -174 -121 -267 -273 -267z" />
    <glyph glyph-name="V" unicode="V" horiz-adv-x="687" 
d="M346 182l185 527h146l-263 -709h-142l-262 709h151z" />
    <glyph glyph-name="W" unicode="W" horiz-adv-x="1027" 
d="M746 219l128 490h141l-196 -709h-142l-162 505l-162 -505h-144l-197 709h146l130 -488l157 488h143z" />
    <glyph glyph-name="X" unicode="X" horiz-adv-x="669" 
d="M651 709l-232 -355l233 -354h-167l-153 245l-154 -245h-162l233 355l-232 354h166l152 -245l155 245h161z" />
    <glyph glyph-name="Y" unicode="Y" horiz-adv-x="655" 
d="M257 298l-247 411h162l159 -281l159 281h155l-250 -411v-298h-138v298z" />
    <glyph glyph-name="Z" unicode="Z" horiz-adv-x="640" 
d="M597 0h-558v134l369 444h-356v131h540v-129l-375 -448h380v-132z" />
    <glyph glyph-name="bracketleft" unicode="[" horiz-adv-x="317" 
d="M312 -164h-231v974h231v-101h-120v-770h120v-103z" />
    <glyph glyph-name="backslash" unicode="\" horiz-adv-x="476" 
d="M354 -9l-354 727h123l353 -727h-122z" />
    <glyph glyph-name="bracketright" unicode="]" horiz-adv-x="317" 
d="M236 -164h-231v103h119v770h-119v101h231v-974z" />
    <glyph glyph-name="asciicircum" unicode="^" horiz-adv-x="530" 
d="M514 351h-125l-123 231l-123 -231h-127l198 358h102z" />
    <glyph glyph-name="underscore" unicode="_" horiz-adv-x="523" 
d="M517 -109h-511v109h511v-109z" />
    <glyph glyph-name="grave" unicode="`" horiz-adv-x="296" 
d="M162 551l-136 150h154l90 -150h-108z" />
    <glyph glyph-name="a" unicode="a" horiz-adv-x="539" 
d="M41 134c0 88 65 137 147 149l121 18c28 4 37 18 37 35c0 35 -27 64 -83 64c-58 0 -90 -37 -94 -80l-118 25c8 77 79 162 211 162c156 0 214 -88 214 -187v-242c0 -26 3 -61 6 -78h-122c-3 13 -5 40 -5 59c-25 -39 -72 -73 -145 -73c-105 0 -169 71 -169 148zM238 85
c56 0 108 27 108 114v22l-111 -17c-34 -5 -61 -24 -61 -62c0 -29 21 -57 64 -57z" />
    <glyph glyph-name="b" unicode="b" horiz-adv-x="612" 
d="M200 0h-129v724h131v-286c22 35 76 67 149 67c144 0 227 -111 227 -257c0 -149 -92 -260 -232 -260c-68 0 -120 30 -146 72v-60zM445 247c0 90 -54 139 -122 139c-67 0 -123 -49 -123 -139c0 -89 56 -140 123 -140c68 0 122 50 122 140z" />
    <glyph glyph-name="c" unicode="c" horiz-adv-x="550" 
d="M292 384c-68 0 -125 -49 -125 -138s58 -139 126 -139s102 45 113 83l117 -39c-22 -82 -99 -166 -230 -166c-145 0 -259 110 -259 261c0 152 112 261 255 261c134 0 210 -83 231 -166l-119 -40c-12 41 -43 83 -109 83z" />
    <glyph glyph-name="d" unicode="d" horiz-adv-x="613" 
d="M540 724v-635c0 -33 2 -69 4 -89h-127c-2 10 -5 34 -5 57c-22 -39 -72 -69 -138 -69c-140 0 -240 110 -240 259c0 144 97 257 236 257c85 0 125 -35 139 -61v281h131zM168 247c0 -88 52 -140 122 -140c68 0 121 52 121 141c0 88 -53 137 -121 137s-122 -50 -122 -138z
" />
    <glyph glyph-name="e" unicode="e" horiz-adv-x="553" 
d="M168 302h220c-2 49 -34 97 -110 97c-69 0 -107 -52 -110 -97zM401 174l111 -33c-25 -85 -103 -156 -224 -156c-135 0 -254 97 -254 263c0 157 116 259 242 259c152 0 243 -97 243 -255c0 -19 -2 -39 -2 -41h-352c3 -65 58 -112 124 -112c62 0 96 31 112 75z" />
    <glyph glyph-name="f" unicode="f" horiz-adv-x="356" 
d="M299 614c-30 0 -69 -13 -69 -68v-54h111v-114h-111v-378h-134v378h-82v114h82v56c0 111 70 183 179 183c28 0 55 -5 66 -10v-112c-7 2 -20 5 -42 5z" />
    <glyph glyph-name="g" unicode="g" horiz-adv-x="597" 
d="M36 -27l120 32c9 -54 52 -93 115 -93c84 0 131 42 131 137v36c-20 -32 -66 -63 -137 -63c-131 0 -229 101 -229 239c0 130 94 240 229 240c78 0 123 -34 140 -67v58h128v-439c0 -135 -73 -258 -258 -258c-135 0 -225 84 -239 178zM288 136c68 0 116 49 116 125
s-52 124 -116 124c-66 0 -118 -48 -118 -124c0 -77 49 -125 118 -125z" />
    <glyph glyph-name="h" unicode="h" horiz-adv-x="584" 
d="M204 289v-289h-133v724h133v-273c32 38 86 54 133 54c125 0 183 -87 183 -195v-310h-133v287c0 55 -27 98 -91 98c-56 0 -89 -42 -92 -96z" />
    <glyph glyph-name="i" unicode="i" horiz-adv-x="275" 
d="M204 0h-133v492h133v-492zM55 653c0 46 37 83 82 83c46 0 82 -37 82 -83c0 -44 -36 -81 -82 -81c-45 0 -82 37 -82 81z" />
    <glyph glyph-name="j" unicode="j" horiz-adv-x="275" 
d="M71 -30v522h133v-535c0 -95 -59 -162 -154 -162c-39 0 -68 8 -75 11v111c9 -2 22 -5 41 -5c40 0 55 22 55 58zM55 654c0 46 37 83 82 83c46 0 82 -37 82 -83c0 -45 -36 -81 -82 -81c-45 0 -82 36 -82 81z" />
    <glyph glyph-name="k" unicode="k" horiz-adv-x="559" 
d="M548 492l-197 -207l201 -285h-163l-130 188l-55 -58v-130h-133v724h133v-415l170 183h174z" />
    <glyph glyph-name="l" unicode="l" horiz-adv-x="275" 
d="M204 0h-133v724h133v-724z" />
    <glyph glyph-name="m" unicode="m" horiz-adv-x="886" 
d="M204 0h-133v492h127v-60c27 48 90 74 144 74c67 0 121 -29 146 -82c39 60 91 82 156 82c91 0 178 -55 178 -187v-319h-129v292c0 53 -26 93 -87 93c-57 0 -91 -44 -91 -97v-288h-132v292c0 53 -27 93 -87 93c-58 0 -92 -43 -92 -97v-288z" />
    <glyph glyph-name="n" unicode="n" horiz-adv-x="584" 
d="M204 283v-283h-133v492h129v-61c30 51 89 74 142 74c122 0 178 -87 178 -195v-310h-133v287c0 55 -27 98 -91 98c-58 0 -92 -45 -92 -102z" />
    <glyph glyph-name="o" unicode="o" horiz-adv-x="584" 
d="M292 106c65 0 125 47 125 140s-60 140 -125 140s-125 -47 -125 -140c0 -92 60 -140 125 -140zM292 507c147 0 258 -109 258 -261c0 -151 -111 -261 -258 -261s-258 110 -258 261c0 152 111 261 258 261z" />
    <glyph glyph-name="p" unicode="p" horiz-adv-x="612" 
d="M204 -190h-133v682h129v-60c22 38 77 71 151 71c144 0 227 -110 227 -256c0 -149 -93 -259 -232 -259c-68 0 -118 27 -142 60v-238zM447 246c0 87 -54 138 -122 138s-123 -51 -123 -138s55 -139 123 -139s122 51 122 139z" />
    <glyph glyph-name="q" unicode="q" horiz-adv-x="608" 
d="M541 -190h-130v239c-23 -37 -72 -61 -137 -61c-140 0 -240 111 -240 259c0 144 93 257 236 257c86 0 130 -41 144 -69v57h127v-682zM168 247c0 -88 54 -140 122 -140s122 52 122 140s-54 138 -122 138s-122 -50 -122 -138z" />
    <glyph glyph-name="r" unicode="r" horiz-adv-x="391" 
d="M371 494v-134c-15 3 -28 4 -40 4c-68 0 -127 -33 -127 -139v-225h-133v492h129v-73c30 65 98 77 140 77c11 0 21 -1 31 -2z" />
    <glyph glyph-name="s" unicode="s" horiz-adv-x="461" 
d="M29 137l114 25c3 -39 32 -75 90 -75c44 0 65 23 65 49c0 22 -15 40 -53 48l-65 15c-95 21 -138 78 -138 147c0 88 78 161 184 161c140 0 187 -89 193 -142l-111 -25c-4 29 -25 66 -81 66c-35 0 -63 -21 -63 -49c0 -24 18 -39 45 -44l70 -15c97 -20 146 -79 146 -151
c0 -80 -62 -162 -191 -162c-148 0 -199 96 -205 152z" />
    <glyph glyph-name="t" unicode="t" horiz-adv-x="373" 
d="M235 639v-147h99v-118h-99v-206c0 -43 20 -57 58 -57c16 0 34 2 41 4v-110c-12 -5 -36 -12 -75 -12c-96 0 -156 57 -156 152v229h-89v118h25c52 0 76 34 76 78v69h120z" />
    <glyph glyph-name="u" unicode="u" horiz-adv-x="586" 
d="M393 0c-2 10 -4 33 -4 53c-27 -46 -84 -66 -136 -66c-119 0 -187 87 -187 194v311h133v-284c0 -55 28 -99 90 -99c59 0 93 40 93 97v286h133v-403c0 -38 3 -72 5 -89h-127z" />
    <glyph glyph-name="v" unicode="v" horiz-adv-x="545" 
d="M535 492l-191 -492h-133l-201 492h146l122 -330l117 330h140z" />
    <glyph glyph-name="w" unicode="w" horiz-adv-x="831" 
d="M350 492h140l106 -317l91 317h132l-154 -492h-133l-115 336l-113 -336h-135l-157 492h140l91 -316z" />
    <glyph glyph-name="x" unicode="x" horiz-adv-x="532" 
d="M12 0l175 247l-175 245h158c17 -27 81 -119 98 -146l97 146h151l-172 -241l178 -251h-156l-103 151c-18 -27 -84 -124 -101 -151h-150z" />
    <glyph glyph-name="y" unicode="y" horiz-adv-x="560" 
d="M241 -194h-141l116 256l-209 430h149l131 -288l121 288h142z" />
    <glyph glyph-name="z" unicode="z" horiz-adv-x="481" 
d="M444 0h-407v117l233 260h-227v115h397v-111l-240 -265h244v-116z" />
    <glyph glyph-name="braceleft" unicode="{" horiz-adv-x="375" 
d="M45 271v111c57 0 100 25 100 93v142c0 131 74 193 194 193h31v-101h-30c-49 0 -83 -23 -83 -89v-168c0 -63 -37 -109 -101 -126c64 -16 101 -62 101 -126v-167c0 -66 34 -90 83 -90h30v-101h-31c-120 0 -194 63 -194 194v142c0 68 -43 93 -100 93z" />
    <glyph glyph-name="bar" unicode="|" horiz-adv-x="273" 
d="M192 -158h-111v968h111v-968z" />
    <glyph glyph-name="braceright" unicode="}" horiz-adv-x="375" 
d="M330 382v-111c-57 0 -101 -25 -101 -93v-142c0 -131 -74 -194 -193 -194h-31v101h29c50 0 84 24 84 90v167c0 64 37 110 100 126c-64 17 -100 63 -100 126v168c0 66 -34 89 -84 89h-29v101h31c119 0 193 -62 193 -193v-142c0 -68 44 -93 101 -93z" />
    <glyph glyph-name="asciitilde" unicode="~" horiz-adv-x="583" 
d="M286 233l-47 26c-17 9 -34 13 -50 13c-34 0 -66 -18 -89 -52l-74 59c37 68 97 105 166 105c33 0 69 -9 104 -28l47 -26c17 -10 36 -14 53 -14c34 0 66 17 88 51l73 -59c-37 -68 -97 -104 -165 -104c-33 0 -71 9 -106 29z" />
    <glyph glyph-name="uni00A0" unicode="&#xa0;" horiz-adv-x="247" 
 />
    <glyph glyph-name="exclamdown" unicode="&#xa1;" horiz-adv-x="302" 
d="M200 283l31 -493h-160l32 493h97zM72 428c0 43 35 79 79 79c43 0 79 -36 79 -79c0 -44 -36 -80 -79 -80c-44 0 -79 36 -79 80z" />
    <glyph glyph-name="cent" unicode="&#xa2;" horiz-adv-x="549" 
d="M332 0h-101v87c-110 24 -190 116 -190 235c0 122 80 214 190 236v91h101v-90c99 -16 155 -82 173 -149l-113 -37c-12 38 -41 77 -104 77c-65 0 -120 -45 -120 -128c0 -82 56 -128 121 -128c64 0 97 41 107 77l112 -36c-19 -67 -78 -135 -176 -151v-84z" />
    <glyph glyph-name="sterling" unicode="&#xa3;" horiz-adv-x="592" 
d="M63 375h61c-10 28 -18 58 -18 95c0 101 82 194 213 194c157 0 209 -106 210 -189l-120 -18c-1 60 -33 95 -88 95c-45 0 -86 -27 -86 -84c0 -34 10 -62 22 -93h183v-102h-151c0 -7 1 -14 1 -21c0 -55 -23 -106 -72 -136h155c50 0 81 36 81 84l119 -10
c0 -110 -71 -190 -179 -190h-335v111c64 23 106 69 106 127c0 12 -2 24 -4 35h-98v102z" />
    <glyph glyph-name="currency" unicode="&#xa4;" horiz-adv-x="587" 
d="M78 245c0 40 11 77 30 108l-72 73l80 80l74 -75c32 17 67 27 105 27c37 0 72 -9 103 -26l73 74l80 -80l-71 -71c20 -32 31 -70 31 -110s-11 -77 -30 -109l70 -71l-80 -80l-72 73c-31 -17 -67 -26 -104 -26c-39 0 -75 9 -107 27l-72 -74l-80 80l71 72
c-18 32 -29 68 -29 108zM190 245c0 -61 44 -105 105 -105s105 44 105 105s-44 105 -105 105s-105 -44 -105 -105z" />
    <glyph glyph-name="yen" unicode="&#xa5;" horiz-adv-x="614" 
d="M553 135h-180v-135h-130v135h-173v94h173v70h-173v93h107l-155 257h151l138 -245l136 245h145l-154 -257h115v-93h-180v-70h180v-94z" />
    <glyph glyph-name="brokenbar" unicode="&#xa6;" horiz-adv-x="273" 
d="M81 810h111v-398h-111v398zM81 240h111v-398h-111v398z" />
    <glyph glyph-name="section" unicode="&#xa7;" horiz-adv-x="561" 
d="M491 251c0 -62 -37 -103 -77 -125c51 -37 77 -88 77 -143c0 -117 -103 -192 -212 -192c-130 0 -207 75 -212 187l125 21c0 -63 35 -95 88 -95c45 0 77 28 77 70c0 27 -17 48 -44 62l-102 53c-74 38 -141 83 -141 175c0 61 37 103 77 125c-51 37 -77 89 -77 143
c0 117 103 192 213 192c129 0 207 -78 211 -187l-126 -21c0 64 -34 95 -86 95c-47 0 -78 -29 -78 -70c0 -25 15 -49 44 -62l101 -52c75 -39 142 -84 142 -176zM326 292l-102 54c-19 -15 -32 -34 -32 -57c0 -27 10 -49 43 -66l102 -54c18 14 32 33 32 57c0 27 -11 49 -43 66z
" />
    <glyph glyph-name="dieresis" unicode="&#xa8;" horiz-adv-x="405" 
d="M27 628c0 39 31 71 70 71s71 -32 71 -71s-32 -70 -71 -70s-70 31 -70 70zM237 628c0 39 30 71 70 71c39 0 71 -32 71 -71s-32 -70 -71 -70c-40 0 -70 31 -70 70z" />
    <glyph glyph-name="copyright" unicode="&#xa9;" horiz-adv-x="816" 
d="M124 354c0 -163 124 -291 283 -291s283 128 283 291c0 164 -124 292 -283 292s-283 -128 -283 -292zM39 354c0 204 164 371 368 371s370 -167 370 -371c0 -203 -166 -370 -370 -370s-368 167 -368 370zM411 458c-51 0 -95 -37 -95 -105c0 -67 44 -106 96 -106
s78 35 86 64l89 -30c-17 -62 -75 -126 -175 -126c-110 0 -197 83 -197 198c0 116 85 199 194 199c102 0 160 -63 176 -126l-91 -31c-9 31 -32 63 -83 63z" />
    <glyph glyph-name="ordfeminine" unicode="&#xaa;" horiz-adv-x="423" 
d="M55 397c0 59 39 94 103 104l83 14c19 3 25 12 25 24c0 21 -18 39 -53 39c-39 0 -60 -25 -62 -52l-89 18c4 51 52 115 151 115c111 0 152 -62 152 -133v-170c0 -24 3 -44 5 -54h-93c-1 5 -3 18 -3 40c-19 -29 -51 -50 -100 -50c-75 0 -119 51 -119 105zM198 366
c34 0 68 17 68 73v16l-70 -11c-23 -3 -40 -15 -40 -41c0 -18 13 -37 42 -37z" />
    <glyph glyph-name="guillemotleft" unicode="&#xab;" horiz-adv-x="524" 
d="M290 101h-126l-137 194l138 197h125l-136 -198zM506 101h-126l-136 194l137 197h126l-137 -198z" />
    <glyph glyph-name="logicalnot" unicode="&#xac;" horiz-adv-x="590" 
d="M534 136h-114v195h-375v110h489v-305z" />
    <glyph glyph-name="uni00AD" unicode="&#xad;" horiz-adv-x="380" 
d="M335 238h-290v118h290v-118z" />
    <glyph glyph-name="registered" unicode="&#xae;" horiz-adv-x="816" 
d="M39 354c0 204 164 371 368 371s370 -167 370 -371c0 -203 -166 -370 -370 -370s-368 167 -368 370zM124 354c0 -163 124 -291 283 -291s283 128 283 291c0 164 -124 292 -283 292s-283 -128 -283 -292zM467 157l-69 139h-29v-139h-95v400h158c77 0 137 -58 137 -130
c0 -53 -31 -96 -77 -116l80 -154h-105zM369 374h46c36 0 58 20 58 52c0 33 -22 53 -58 53h-46v-105z" />
    <glyph glyph-name="macron" unicode="&#xaf;" horiz-adv-x="335" 
d="M308 577h-281v97h281v-97z" />
    <glyph glyph-name="degree" unicode="&#xb0;" horiz-adv-x="373" 
d="M120 499c0 -42 29 -70 66 -70c38 0 66 29 66 70s-28 69 -66 69c-37 0 -66 -28 -66 -69zM20 499c0 92 76 164 166 164s167 -72 167 -164c0 -93 -77 -163 -167 -163c-91 0 -166 72 -166 163z" />
    <glyph glyph-name="plusminus" unicode="&#xb1;" horiz-adv-x="592" 
d="M62 421h178v123h112v-123h178v-108h-178v-123h-112v123h-178v108zM62 153h468v-109h-468v109z" />
    <glyph glyph-name="twosuperior" unicode="&#xb2;" horiz-adv-x="394" 
d="M149 565l-91 -1c-2 7 -4 18 -4 29c0 69 50 124 144 124c90 0 142 -56 142 -122c0 -48 -29 -82 -79 -112l-70 -42c-7 -4 -12 -9 -12 -15h164v-85h-291v12c0 65 23 118 89 157l60 35c25 15 38 32 38 51c0 18 -14 39 -42 39c-31 0 -51 -19 -51 -52c0 -5 1 -12 3 -18z" />
    <glyph glyph-name="threesuperior" unicode="&#xb3;" horiz-adv-x="411" 
d="M51 448l91 21c3 -30 27 -53 61 -53c33 0 54 19 54 44c0 32 -26 45 -53 45c-13 0 -25 -3 -32 -6l-33 68l87 59h-161v83h284v-82l-90 -61c59 -8 101 -45 101 -108c0 -67 -60 -125 -157 -125c-90 0 -144 56 -152 115z" />
    <glyph glyph-name="acute" unicode="&#xb4;" horiz-adv-x="295" 
d="M269 701l-136 -150h-107l91 150h152z" />
    <glyph glyph-name="mu" unicode="&#xb5;" horiz-adv-x="594" 
d="M399 0c-2 10 -4 33 -4 53c-27 -46 -84 -66 -136 -66c-20 0 -38 2 -54 7v-184h-133v682h133v-284c0 -55 28 -99 90 -99c59 0 93 40 93 97v286h133v-403c0 -40 3 -76 5 -89h-127z" />
    <glyph glyph-name="paragraph" unicode="&#xb6;" horiz-adv-x="666" 
d="M351 607v-801h-104v495h-17c-111 0 -204 87 -204 200c0 134 108 208 237 208h387v-102h-97v-801h-106v801h-96z" />
    <glyph glyph-name="periodcentered" unicode="&#xb7;" horiz-adv-x="288" 
d="M61 309c0 48 38 85 86 85s86 -37 86 -85s-38 -84 -86 -84s-86 36 -86 84z" />
    <glyph glyph-name="cedilla" unicode="&#xb8;" horiz-adv-x="298" 
d="M119 -108l-36 45l48 76h83l-39 -61c57 -1 97 -36 97 -86c0 -46 -35 -95 -128 -95c-56 0 -100 28 -119 52l43 54c14 -14 40 -37 75 -37c24 0 41 10 41 28c0 15 -14 28 -38 28c-8 0 -19 -1 -27 -4z" />
    <glyph glyph-name="onesuperior" unicode="&#xb9;" horiz-adv-x="303" 
d="M232 342h-103v223h-91v66c63 0 96 42 103 78h91v-367z" />
    <glyph glyph-name="ordmasculine" unicode="&#xba;" horiz-adv-x="482" 
d="M242 385c42 0 81 30 81 91c0 60 -39 90 -81 90s-81 -30 -81 -90c0 -61 39 -91 81 -91zM242 659c103 0 183 -76 183 -183c0 -108 -80 -184 -183 -184c-104 0 -184 76 -184 184c0 107 80 183 184 183z" />
    <glyph glyph-name="guillemotright" unicode="&#xbb;" horiz-adv-x="524" 
d="M360 101h-126l136 193l-136 198h125l138 -197zM144 101h-126l135 193l-136 198h125l138 -197z" />
    <glyph glyph-name="onequarter" unicode="&#xbc;" horiz-adv-x="808" 
d="M240 282h-103v223h-91v66c63 0 96 42 103 78h91v-367zM429 71v99l169 198h109v-218h61v-79h-61v-71h-100v71h-178zM607 150v114l-97 -114h97zM213 0h-116l458 649h116z" />
    <glyph glyph-name="onehalf" unicode="&#xbd;" horiz-adv-x="826" 
d="M240 282h-103v223h-91v66c63 0 96 42 103 78h91v-367zM212 0h-116l458 649h116zM586 224l-91 -1c-2 7 -4 18 -4 29c0 69 50 124 144 124c90 0 142 -56 142 -122c0 -48 -29 -82 -79 -112l-70 -42c-7 -4 -12 -9 -12 -15h164v-85h-291v12c0 65 23 118 89 157l60 35
c25 15 38 32 38 51c0 18 -14 39 -42 39c-31 0 -51 -19 -51 -52c0 -5 1 -12 3 -18z" />
    <glyph glyph-name="threequarters" unicode="&#xbe;" horiz-adv-x="884" 
d="M50 388l91 21c3 -30 27 -53 61 -53c33 0 54 19 54 44c0 32 -26 45 -53 45c-13 0 -25 -3 -32 -6l-33 68l87 59h-161v83h284v-82l-90 -61c59 -8 101 -45 101 -108c0 -67 -60 -125 -157 -125c-90 0 -144 56 -152 115zM505 71v99l169 198h109v-218h61v-79h-61v-71h-100v71
h-178zM683 150v114l-97 -114h97zM296 0h-116l458 649h116z" />
    <glyph glyph-name="questiondown" unicode="&#xbf;" horiz-adv-x="493" 
d="M206 284h108c2 -13 3 -26 3 -41c0 -54 -19 -104 -77 -146l-48 -35c-30 -22 -42 -49 -42 -79c0 -46 32 -89 99 -89c70 0 103 52 103 106c0 14 -2 30 -6 41l128 -12c3 -14 5 -29 5 -44c0 -108 -81 -210 -230 -210c-155 0 -235 99 -235 199c0 79 39 137 97 178l41 29
c34 24 54 56 54 97v6zM179 428c0 44 36 79 80 79s79 -35 79 -79s-35 -79 -79 -79s-80 35 -80 79z" />
    <glyph glyph-name="Agrave" unicode="&#xc0;" horiz-adv-x="722" 
d="M562 0l-59 162h-288l-59 -162h-146l272 709h160l270 -709h-150zM359 556l-98 -268h196zM310 759l-145 127h163l104 -127h-122z" />
    <glyph glyph-name="Aacute" unicode="&#xc1;" horiz-adv-x="722" 
d="M562 0l-59 162h-288l-59 -162h-146l272 709h160l270 -709h-150zM359 556l-98 -268h196zM558 886l-145 -127h-122l103 127h164z" />
    <glyph glyph-name="Acircumflex" unicode="&#xc2;" horiz-adv-x="722" 
d="M562 0l-59 162h-288l-59 -162h-146l272 709h160l270 -709h-150zM359 556l-98 -268h196zM291 759h-121l120 127h136l122 -127h-125l-67 65z" />
    <glyph glyph-name="Atilde" unicode="&#xc3;" horiz-adv-x="722" 
d="M562 0l-59 162h-288l-59 -162h-146l272 709h160l270 -709h-150zM359 556l-98 -268h196zM525 890v-28c0 -73 -46 -110 -101 -110c-30 0 -55 11 -75 24l-6 4c-18 11 -33 20 -48 20c-20 0 -29 -13 -29 -43h-80v27c0 74 47 109 101 109c30 0 55 -11 76 -23l6 -4
c18 -9 33 -19 47 -19c16 0 29 9 29 31v12h80z" />
    <glyph glyph-name="Adieresis" unicode="&#xc4;" horiz-adv-x="722" 
d="M128 823c0 40 30 72 71 72s73 -32 73 -72c0 -41 -32 -72 -73 -72s-71 31 -71 72zM446 823c0 40 31 72 72 72s73 -32 73 -72c0 -41 -32 -72 -73 -72s-72 31 -72 72zM562 0l-59 162h-288l-59 -162h-146l272 709h160l270 -709h-150zM359 556l-98 -268h196z" />
    <glyph glyph-name="Aring" unicode="&#xc5;" horiz-adv-x="722" 
d="M409 759c0 31 -23 51 -50 51c-28 0 -50 -20 -50 -51c0 -30 22 -50 50 -50c27 0 50 20 50 50zM359 556l-98 -268h196zM562 0l-59 162h-288l-59 -162h-146l255 664c-26 24 -42 56 -42 95c0 77 64 132 136 132s136 -55 136 -132c0 -36 -15 -68 -38 -91l255 -668h-150z" />
    <glyph glyph-name="AE" unicode="&#xc6;" horiz-adv-x="1060" 
d="M1003 0h-445v167h-274l-107 -167h-169l470 709h524v-130h-305v-162h276v-123h-276v-164h306v-130zM358 283h200v312z" />
    <glyph glyph-name="Ccedilla" unicode="&#xc7;" horiz-adv-x="764" 
d="M370 -108l-36 45l32 50c-181 16 -327 155 -327 367c0 226 171 370 361 370c196 0 297 -120 325 -235l-130 -41c-17 68 -72 143 -195 143c-106 0 -218 -76 -218 -237c0 -151 106 -234 220 -234c121 0 180 79 199 145l129 -39c-25 -100 -112 -220 -281 -238l-23 -36
c57 -1 97 -36 97 -86c0 -46 -35 -95 -128 -95c-56 0 -100 28 -119 52l43 54c14 -14 40 -37 75 -37c24 0 41 10 41 28c0 15 -14 28 -38 28c-8 0 -20 -1 -27 -4z" />
    <glyph glyph-name="Egrave" unicode="&#xc8;" horiz-adv-x="582" 
d="M273 759l-145 127h163l104 -127h-122zM525 0h-444v709h444v-130h-306v-162h277v-123h-277v-164h306v-130z" />
    <glyph glyph-name="Eacute" unicode="&#xc9;" horiz-adv-x="582" 
d="M491 886l-145 -127h-122l103 127h164zM525 0h-444v709h444v-130h-306v-162h277v-123h-277v-164h306v-130z" />
    <glyph glyph-name="Ecircumflex" unicode="&#xca;" horiz-adv-x="582" 
d="M233 759h-121l120 127h136l122 -127h-125l-67 65zM525 0h-444v709h444v-130h-306v-162h277v-123h-277v-164h306v-130z" />
    <glyph glyph-name="Edieresis" unicode="&#xcb;" horiz-adv-x="582" 
d="M121 823c0 40 30 72 71 72s73 -32 73 -72c0 -41 -32 -72 -73 -72s-71 31 -71 72zM346 823c0 40 30 72 71 72s73 -32 73 -72c0 -41 -32 -72 -73 -72s-71 31 -71 72zM525 0h-444v709h444v-130h-306v-162h277v-123h-277v-164h306v-130z" />
    <glyph glyph-name="Igrave" unicode="&#xcc;" horiz-adv-x="302" 
d="M221 0h-140v709h140v-709zM97 759l-145 127h163l104 -127h-122z" />
    <glyph glyph-name="Iacute" unicode="&#xcd;" horiz-adv-x="302" 
d="M221 0h-140v709h140v-709zM350 886l-145 -127h-122l103 127h164z" />
    <glyph glyph-name="Icircumflex" unicode="&#xce;" horiz-adv-x="302" 
d="M221 0h-140v709h140v-709zM87 759h-121l120 127h136l122 -127h-125l-67 65z" />
    <glyph glyph-name="Idieresis" unicode="&#xcf;" horiz-adv-x="302" 
d="M-12 823c0 39 29 70 69 70c39 0 71 -31 71 -70c0 -40 -32 -70 -71 -70c-40 0 -69 30 -69 70zM177 823c0 39 30 70 69 70c40 0 71 -31 71 -70c0 -40 -31 -70 -71 -70c-39 0 -69 30 -69 70zM221 0h-140v709h140v-709z" />
    <glyph glyph-name="Eth" unicode="&#xd0;" horiz-adv-x="747" 
d="M357 0h-253v315h-88v102h88v292h254c202 0 350 -131 350 -355s-149 -354 -351 -354zM242 128h110c116 0 213 72 213 226s-96 227 -212 227h-111v-164h137v-102h-137v-187z" />
    <glyph glyph-name="Ntilde" unicode="&#xd1;" horiz-adv-x="767" 
d="M555 890v-28c0 -73 -46 -110 -101 -110c-30 0 -55 11 -75 24l-6 4c-18 11 -33 20 -48 20c-20 0 -29 -13 -29 -43h-80v27c0 74 47 109 101 109c30 0 55 -11 76 -23l6 -4c18 -9 33 -19 47 -19c16 0 29 9 29 31v12h80zM686 0h-145l-322 503v-503h-138v709h172l295 -469v469
h138v-709z" />
    <glyph glyph-name="Ograve" unicode="&#xd2;" horiz-adv-x="807" 
d="M346 759l-145 127h163l104 -127h-122zM182 355c0 -160 112 -236 221 -236c110 0 222 76 222 236s-112 236 -222 236c-109 0 -221 -76 -221 -236zM39 354c0 229 172 370 364 370c193 0 365 -141 365 -370c0 -228 -172 -369 -365 -369c-192 0 -364 141 -364 369z" />
    <glyph glyph-name="Oacute" unicode="&#xd3;" horiz-adv-x="807" 
d="M600 886l-145 -127h-122l103 127h164zM182 355c0 -160 112 -236 221 -236c110 0 222 76 222 236s-112 236 -222 236c-109 0 -221 -76 -221 -236zM39 354c0 229 172 370 364 370c193 0 365 -141 365 -370c0 -228 -172 -369 -365 -369c-192 0 -364 141 -364 369z" />
    <glyph glyph-name="Ocircumflex" unicode="&#xd4;" horiz-adv-x="807" 
d="M336 759h-121l120 127h136l122 -127h-125l-67 65zM182 355c0 -160 112 -236 221 -236c110 0 222 76 222 236s-112 236 -222 236c-109 0 -221 -76 -221 -236zM39 354c0 229 172 370 364 370c193 0 365 -141 365 -370c0 -228 -172 -369 -365 -369c-192 0 -364 141 -364 369
z" />
    <glyph glyph-name="Otilde" unicode="&#xd5;" horiz-adv-x="807" 
d="M571 890v-28c0 -73 -46 -110 -101 -110c-30 0 -55 11 -75 24l-6 4c-18 11 -33 20 -48 20c-20 0 -29 -13 -29 -43h-80v27c0 74 47 109 101 109c30 0 55 -11 76 -23l6 -4c18 -9 33 -19 47 -19c16 0 29 9 29 31v12h80zM182 355c0 -160 112 -236 221 -236
c110 0 222 76 222 236s-112 236 -222 236c-109 0 -221 -76 -221 -236zM39 354c0 229 172 370 364 370c193 0 365 -141 365 -370c0 -228 -172 -369 -365 -369c-192 0 -364 141 -364 369z" />
    <glyph glyph-name="Odieresis" unicode="&#xd6;" horiz-adv-x="807" 
d="M165 823c0 40 31 72 72 72s73 -32 73 -72c0 -41 -32 -72 -73 -72s-72 31 -72 72zM498 823c0 40 31 72 72 72c40 0 72 -32 72 -72c0 -41 -32 -72 -72 -72c-41 0 -72 31 -72 72zM182 355c0 -160 112 -236 221 -236c110 0 222 76 222 236s-112 236 -222 236
c-109 0 -221 -76 -221 -236zM39 354c0 229 172 370 364 370c193 0 365 -141 365 -370c0 -228 -172 -369 -365 -369c-192 0 -364 141 -364 369z" />
    <glyph glyph-name="multiply" unicode="&#xd7;" horiz-adv-x="563" 
d="M447 47l-166 168l-165 -167l-79 79l165 168l-165 168l80 79l164 -167l165 167l80 -78l-166 -169l166 -168z" />
    <glyph glyph-name="Oslash" unicode="&#xd8;" horiz-adv-x="807" 
d="M39 354c0 229 172 370 364 370c64 0 127 -16 181 -46l70 90l88 -66l-70 -91c59 -63 96 -151 96 -257c0 -228 -172 -369 -365 -369c-65 0 -127 16 -181 45l-68 -88l-90 65l71 91c-59 63 -96 150 -96 256zM182 355c0 -60 15 -108 40 -144l278 359c-30 14 -64 21 -97 21
c-109 0 -221 -76 -221 -236zM625 355c0 59 -15 108 -40 144l-278 -359c30 -14 63 -21 96 -21c110 0 222 76 222 236z" />
    <glyph glyph-name="Ugrave" unicode="&#xd9;" horiz-adv-x="693" 
d="M303 759l-145 127h163l104 -127h-122zM346 -16c-151 0 -272 93 -272 267v458h138v-448c0 -93 52 -142 134 -142c84 0 135 49 135 142v448h138v-458c0 -174 -121 -267 -273 -267z" />
    <glyph glyph-name="Uacute" unicode="&#xda;" horiz-adv-x="693" 
d="M528 886l-145 -127h-122l103 127h164zM346 -16c-151 0 -272 93 -272 267v458h138v-448c0 -93 52 -142 134 -142c84 0 135 49 135 142v448h138v-458c0 -174 -121 -267 -273 -267z" />
    <glyph glyph-name="Ucircumflex" unicode="&#xdb;" horiz-adv-x="693" 
d="M279 759h-121l120 127h136l122 -127h-125l-67 65zM346 -16c-151 0 -272 93 -272 267v458h138v-448c0 -93 52 -142 134 -142c84 0 135 49 135 142v448h138v-458c0 -174 -121 -267 -273 -267z" />
    <glyph glyph-name="Udieresis" unicode="&#xdc;" horiz-adv-x="693" 
d="M155 823c0 40 31 72 72 72c40 0 72 -32 72 -72c0 -41 -32 -72 -72 -72c-41 0 -72 31 -72 72zM395 823c0 40 31 72 72 72c40 0 72 -32 72 -72c0 -41 -32 -72 -72 -72c-41 0 -72 31 -72 72zM346 -16c-151 0 -272 93 -272 267v458h138v-448c0 -93 52 -142 134 -142
c84 0 135 49 135 142v448h138v-458c0 -174 -121 -267 -273 -267z" />
    <glyph glyph-name="Yacute" unicode="&#xdd;" horiz-adv-x="655" 
d="M257 298l-247 411h162l159 -281l159 281h155l-250 -411v-298h-138v298zM516 886l-145 -127h-122l103 127h164z" />
    <glyph glyph-name="Thorn" unicode="&#xde;" horiz-adv-x="604" 
d="M220 257h109c69 0 111 40 111 101c0 63 -42 103 -111 103h-109v-204zM342 139h-123v-139h-138v709h138v-129h122c136 0 238 -95 238 -221s-102 -220 -237 -220z" />
    <glyph glyph-name="germandbls" unicode="&#xdf;" horiz-adv-x="596" 
d="M401 343c1 -19 13 -25 37 -35l30 -13c67 -27 112 -83 112 -154c0 -68 -52 -156 -178 -156c-121 0 -168 85 -168 143l107 21c0 -26 16 -63 62 -63c34 0 53 24 53 46c0 25 -14 42 -48 56l-30 12c-51 21 -110 56 -110 134c0 60 36 96 67 116l20 13c32 20 49 42 49 72
c0 36 -29 72 -94 72c-57 0 -108 -38 -108 -130v-477h-131v486c0 162 113 238 239 238c138 0 226 -83 226 -183c0 -78 -42 -120 -88 -150l-20 -12c-17 -11 -27 -19 -27 -36z" />
    <glyph glyph-name="agrave" unicode="&#xe0;" horiz-adv-x="539" 
d="M41 134c0 88 65 137 147 149l121 18c28 4 37 18 37 35c0 35 -27 64 -83 64c-58 0 -90 -37 -94 -80l-118 25c8 77 79 162 211 162c156 0 214 -88 214 -187v-242c0 -26 3 -61 6 -78h-122c-3 13 -5 40 -5 59c-25 -39 -72 -73 -145 -73c-105 0 -169 71 -169 148zM238 85
c56 0 108 27 108 114v22l-111 -17c-34 -5 -61 -24 -61 -62c0 -29 21 -57 64 -57zM227 551l-136 150h154l90 -150h-108z" />
    <glyph glyph-name="aacute" unicode="&#xe1;" horiz-adv-x="539" 
d="M41 134c0 88 65 137 147 149l121 18c28 4 37 18 37 35c0 35 -27 64 -83 64c-58 0 -90 -37 -94 -80l-118 25c8 77 79 162 211 162c156 0 214 -88 214 -187v-242c0 -26 3 -61 6 -78h-122c-3 13 -5 40 -5 59c-25 -39 -72 -73 -145 -73c-105 0 -169 71 -169 148zM238 85
c56 0 108 27 108 114v22l-111 -17c-34 -5 -61 -24 -61 -62c0 -29 21 -57 64 -57zM443 701l-136 -150h-107l91 150h152z" />
    <glyph glyph-name="acircumflex" unicode="&#xe2;" horiz-adv-x="539" 
d="M41 134c0 88 65 137 147 149l121 18c28 4 37 18 37 35c0 35 -27 64 -83 64c-58 0 -90 -37 -94 -80l-118 25c8 77 79 162 211 162c156 0 214 -88 214 -187v-242c0 -26 3 -61 6 -78h-122c-3 13 -5 40 -5 59c-25 -39 -72 -73 -145 -73c-105 0 -169 71 -169 148zM238 85
c56 0 108 27 108 114v22l-111 -17c-34 -5 -61 -24 -61 -62c0 -29 21 -57 64 -57zM193 552h-104l110 147h132l110 -147h-107l-71 75z" />
    <glyph glyph-name="atilde" unicode="&#xe3;" horiz-adv-x="539" 
d="M41 134c0 88 65 137 147 149l121 18c28 4 37 18 37 35c0 35 -27 64 -83 64c-58 0 -90 -37 -94 -80l-118 25c8 77 79 162 211 162c156 0 214 -88 214 -187v-242c0 -26 3 -61 6 -78h-122c-3 13 -5 40 -5 59c-25 -39 -72 -73 -145 -73c-105 0 -169 71 -169 148zM238 85
c56 0 108 27 108 114v22l-111 -17c-34 -5 -61 -24 -61 -62c0 -29 21 -57 64 -57zM443 696v-18c0 -83 -45 -123 -107 -123c-28 0 -52 9 -71 22l-6 4c-13 8 -23 18 -47 18c-21 0 -34 -12 -35 -43h-82v21c0 81 48 121 109 121c29 0 51 -11 72 -22l6 -4c17 -10 32 -19 48 -19
c21 0 33 14 33 43h80z" />
    <glyph glyph-name="adieresis" unicode="&#xe4;" horiz-adv-x="539" 
d="M41 134c0 88 65 137 147 149l121 18c28 4 37 18 37 35c0 35 -27 64 -83 64c-58 0 -90 -37 -94 -80l-118 25c8 77 79 162 211 162c156 0 214 -88 214 -187v-242c0 -26 3 -61 6 -78h-122c-3 13 -5 40 -5 59c-25 -39 -72 -73 -145 -73c-105 0 -169 71 -169 148zM238 85
c56 0 108 27 108 114v22l-111 -17c-34 -5 -61 -24 -61 -62c0 -29 21 -57 64 -57zM91 628c0 39 31 71 70 71s71 -32 71 -71s-32 -70 -71 -70s-70 31 -70 70zM301 628c0 39 30 71 70 71c39 0 71 -32 71 -71s-32 -70 -71 -70c-40 0 -70 31 -70 70z" />
    <glyph glyph-name="aring" unicode="&#xe5;" horiz-adv-x="539" 
d="M41 134c0 88 65 137 147 149l121 18c28 4 37 18 37 35c0 35 -27 64 -83 64c-58 0 -90 -37 -94 -80l-118 25c8 77 79 162 211 162c156 0 214 -88 214 -187v-242c0 -26 3 -61 6 -78h-122c-3 13 -5 40 -5 59c-25 -39 -72 -73 -145 -73c-105 0 -169 71 -169 148zM238 85
c56 0 108 27 108 114v22l-111 -17c-34 -5 -61 -24 -61 -62c0 -29 21 -57 64 -57zM375 653c0 -64 -54 -110 -115 -110s-115 46 -115 110c0 65 54 112 115 112s115 -47 115 -112zM300 653c0 25 -18 42 -41 42s-40 -17 -40 -42c0 -24 17 -41 40 -41s41 17 41 41z" />
    <glyph glyph-name="ae" unicode="&#xe6;" horiz-adv-x="871" 
d="M715 176l112 -35c-25 -85 -107 -156 -226 -156c-76 0 -145 31 -191 88c-48 -64 -114 -88 -187 -88c-117 0 -182 72 -182 149c0 88 65 137 147 149l126 18c29 4 37 19 37 35c0 35 -28 65 -86 65c-59 0 -94 -38 -98 -80l-116 24c7 79 86 162 215 162c81 0 135 -25 167 -64
c44 41 101 64 162 64c150 0 239 -97 239 -255c0 -19 -2 -39 -3 -41h-353c3 -68 58 -113 124 -113c63 0 98 33 113 78zM242 85c52 0 109 27 109 113v23l-116 -17c-35 -5 -63 -24 -63 -62c0 -28 24 -57 70 -57zM481 302h222c-2 49 -34 97 -112 97c-70 0 -107 -52 -110 -97z
" />
    <glyph glyph-name="ccedilla" unicode="&#xe7;" horiz-adv-x="550" 
d="M258 -108l-36 45l32 51c-126 17 -220 121 -220 258c0 152 112 261 255 261c134 0 210 -83 231 -166l-119 -40c-12 41 -43 83 -109 83c-68 0 -125 -49 -125 -138s58 -139 126 -139s102 45 113 83l117 -39c-20 -72 -82 -147 -186 -163l-23 -36c57 -1 97 -36 97 -86
c0 -46 -35 -95 -128 -95c-56 0 -100 28 -119 52l43 54c14 -14 40 -37 75 -37c24 0 41 10 41 28c0 15 -14 28 -38 28c-8 0 -20 -1 -27 -4z" />
    <glyph glyph-name="egrave" unicode="&#xe8;" horiz-adv-x="553" 
d="M168 302h220c-2 49 -34 97 -110 97c-69 0 -107 -52 -110 -97zM401 174l111 -33c-25 -85 -103 -156 -224 -156c-135 0 -254 97 -254 263c0 157 116 259 242 259c152 0 243 -97 243 -255c0 -19 -2 -39 -2 -41h-352c3 -65 58 -112 124 -112c62 0 96 31 112 75zM240 551
l-136 150h154l90 -150h-108z" />
    <glyph glyph-name="eacute" unicode="&#xe9;" horiz-adv-x="553" 
d="M458 701l-136 -150h-107l91 150h152zM168 302h220c-2 49 -34 97 -110 97c-69 0 -107 -52 -110 -97zM401 174l111 -33c-25 -85 -103 -156 -224 -156c-135 0 -254 97 -254 263c0 157 116 259 242 259c152 0 243 -97 243 -255c0 -19 -2 -39 -2 -41h-352
c3 -65 58 -112 124 -112c62 0 96 31 112 75z" />
    <glyph glyph-name="ecircumflex" unicode="&#xea;" horiz-adv-x="553" 
d="M210 552h-104l110 147h132l110 -147h-107l-71 75zM168 302h220c-2 49 -34 97 -110 97c-69 0 -107 -52 -110 -97zM401 174l111 -33c-25 -85 -103 -156 -224 -156c-135 0 -254 97 -254 263c0 157 116 259 242 259c152 0 243 -97 243 -255c0 -19 -2 -39 -2 -41h-352
c3 -65 58 -112 124 -112c62 0 96 31 112 75z" />
    <glyph glyph-name="edieresis" unicode="&#xeb;" horiz-adv-x="553" 
d="M107 628c0 39 31 71 70 71s71 -32 71 -71s-32 -70 -71 -70s-70 31 -70 70zM317 628c0 39 30 71 70 71c39 0 71 -32 71 -71s-32 -70 -71 -70c-40 0 -70 31 -70 70zM168 302h220c-2 49 -34 97 -110 97c-69 0 -107 -52 -110 -97zM401 174l111 -33
c-25 -85 -103 -156 -224 -156c-135 0 -254 97 -254 263c0 157 116 259 242 259c152 0 243 -97 243 -255c0 -19 -2 -39 -2 -41h-352c3 -65 58 -112 124 -112c62 0 96 31 112 75z" />
    <glyph glyph-name="igrave" unicode="&#xec;" horiz-adv-x="275" 
d="M204 0h-133v492h133v-492zM94 551l-136 150h154l90 -150h-108z" />
    <glyph glyph-name="iacute" unicode="&#xed;" horiz-adv-x="275" 
d="M321 701l-136 -150h-107l91 150h152zM204 0h-133v492h133v-492z" />
    <glyph glyph-name="icircumflex" unicode="&#xee;" horiz-adv-x="275" 
d="M66 552h-104l110 147h132l110 -147h-107l-71 75zM204 0h-133v492h133v-492z" />
    <glyph glyph-name="idieresis" unicode="&#xef;" horiz-adv-x="275" 
d="M-21 628c0 39 30 69 68 69s69 -30 69 -69c0 -38 -31 -68 -69 -68s-68 30 -68 68zM158 628c0 39 30 69 68 69c39 0 69 -30 69 -69c0 -38 -30 -68 -69 -68c-38 0 -68 30 -68 68zM204 0h-133v492h133v-492z" />
    <glyph glyph-name="eth" unicode="&#xf0;" horiz-adv-x="581" 
d="M512 622l-77 -32c67 -75 113 -182 113 -313c0 -157 -87 -292 -258 -292c-146 0 -256 104 -256 244c0 153 123 233 241 233c45 0 94 -14 117 -38c-15 47 -42 86 -74 117l-137 -58l-32 80l87 37c-37 20 -75 35 -111 46l41 100c67 -17 137 -46 198 -91l114 48zM290 105
c65 0 125 44 125 126c0 83 -60 126 -125 126c-64 0 -124 -45 -124 -126s60 -126 124 -126z" />
    <glyph glyph-name="ntilde" unicode="&#xf1;" horiz-adv-x="584" 
d="M204 283v-283h-133v492h129v-61c30 51 89 74 142 74c122 0 178 -87 178 -195v-310h-133v287c0 55 -27 98 -91 98c-58 0 -92 -45 -92 -102zM474 696v-18c0 -83 -45 -123 -107 -123c-28 0 -52 9 -71 22l-6 4c-13 8 -23 18 -47 18c-21 0 -34 -12 -35 -43h-82v21
c0 81 48 121 109 121c29 0 51 -11 72 -22l6 -4c17 -10 32 -19 48 -19c21 0 33 14 33 43h80z" />
    <glyph glyph-name="ograve" unicode="&#xf2;" horiz-adv-x="584" 
d="M292 106c65 0 125 47 125 140s-60 140 -125 140s-125 -47 -125 -140c0 -92 60 -140 125 -140zM292 507c147 0 258 -109 258 -261c0 -151 -111 -261 -258 -261s-258 110 -258 261c0 152 111 261 258 261zM245 551l-136 150h154l90 -150h-108z" />
    <glyph glyph-name="oacute" unicode="&#xf3;" horiz-adv-x="584" 
d="M467 701l-136 -150h-107l91 150h152zM292 106c65 0 125 47 125 140s-60 140 -125 140s-125 -47 -125 -140c0 -92 60 -140 125 -140zM292 507c147 0 258 -109 258 -261c0 -151 -111 -261 -258 -261s-258 110 -258 261c0 152 111 261 258 261z" />
    <glyph glyph-name="ocircumflex" unicode="&#xf4;" horiz-adv-x="584" 
d="M222 552h-104l110 147h132l110 -147h-107l-71 75zM292 106c65 0 125 47 125 140s-60 140 -125 140s-125 -47 -125 -140c0 -92 60 -140 125 -140zM292 507c147 0 258 -109 258 -261c0 -151 -111 -261 -258 -261s-258 110 -258 261c0 152 111 261 258 261z" />
    <glyph glyph-name="otilde" unicode="&#xf5;" horiz-adv-x="584" 
d="M292 106c65 0 125 47 125 140s-60 140 -125 140s-125 -47 -125 -140c0 -92 60 -140 125 -140zM292 507c147 0 258 -109 258 -261c0 -151 -111 -261 -258 -261s-258 110 -258 261c0 152 111 261 258 261zM467 696v-18c0 -83 -45 -123 -107 -123c-28 0 -52 9 -71 22l-6 4
c-13 8 -23 18 -47 18c-21 0 -34 -12 -35 -43h-82v21c0 81 48 121 109 121c29 0 51 -11 72 -22l6 -4c17 -10 32 -19 48 -19c21 0 33 14 33 43h80z" />
    <glyph glyph-name="odieresis" unicode="&#xf6;" horiz-adv-x="584" 
d="M116 628c0 39 31 71 70 71s71 -32 71 -71s-32 -70 -71 -70s-70 31 -70 70zM326 628c0 39 30 71 70 71c39 0 71 -32 71 -71s-32 -70 -71 -70c-40 0 -70 31 -70 70zM292 106c65 0 125 47 125 140s-60 140 -125 140s-125 -47 -125 -140c0 -92 60 -140 125 -140zM292 507
c147 0 258 -109 258 -261c0 -151 -111 -261 -258 -261s-258 110 -258 261c0 152 111 261 258 261z" />
    <glyph glyph-name="divide" unicode="&#xf7;" horiz-adv-x="587" 
d="M213 112c0 42 35 77 78 77s78 -35 78 -77s-35 -78 -78 -78s-78 36 -78 78zM213 478c0 42 35 77 78 77s78 -35 78 -77s-35 -78 -78 -78s-78 36 -78 78zM49 239v111h489v-111h-489z" />
    <glyph glyph-name="oslash" unicode="&#xf8;" horiz-adv-x="584" 
d="M292 507c49 0 94 -12 132 -34l53 65l64 -54l-52 -65c38 -45 61 -105 61 -173c0 -151 -111 -261 -258 -261c-47 0 -91 12 -128 31l-50 -62l-66 54l50 61c-40 46 -64 107 -64 177c0 152 111 261 258 261zM167 246c0 -29 5 -52 15 -72l163 201c-17 7 -35 11 -53 11
c-65 0 -125 -47 -125 -140zM292 106c65 0 125 47 125 140c0 26 -5 49 -13 68l-160 -199c15 -6 31 -9 48 -9z" />
    <glyph glyph-name="ugrave" unicode="&#xf9;" horiz-adv-x="586" 
d="M393 0c-2 10 -4 33 -4 53c-27 -46 -84 -66 -136 -66c-119 0 -187 87 -187 194v311h133v-284c0 -55 28 -99 90 -99c59 0 93 40 93 97v286h133v-403c0 -38 3 -72 5 -89h-127zM258 551l-136 150h154l90 -150h-108z" />
    <glyph glyph-name="uacute" unicode="&#xfa;" horiz-adv-x="586" 
d="M450 701l-136 -150h-107l91 150h152zM393 0c-2 10 -4 33 -4 53c-27 -46 -84 -66 -136 -66c-119 0 -187 87 -187 194v311h133v-284c0 -55 28 -99 90 -99c59 0 93 40 93 97v286h133v-403c0 -38 3 -72 5 -89h-127z" />
    <glyph glyph-name="ucircumflex" unicode="&#xfb;" horiz-adv-x="586" 
d="M220 552h-104l110 147h132l110 -147h-107l-71 75zM393 0c-2 10 -4 33 -4 53c-27 -46 -84 -66 -136 -66c-119 0 -187 87 -187 194v311h133v-284c0 -55 28 -99 90 -99c59 0 93 40 93 97v286h133v-403c0 -38 3 -72 5 -89h-127z" />
    <glyph glyph-name="udieresis" unicode="&#xfc;" horiz-adv-x="586" 
d="M118 628c0 39 31 71 70 71s71 -32 71 -71s-32 -70 -71 -70s-70 31 -70 70zM328 628c0 39 30 71 70 71c39 0 71 -32 71 -71s-32 -70 -71 -70c-40 0 -70 31 -70 70zM393 0c-2 10 -4 33 -4 53c-27 -46 -84 -66 -136 -66c-119 0 -187 87 -187 194v311h133v-284
c0 -55 28 -99 90 -99c59 0 93 40 93 97v286h133v-403c0 -38 3 -72 5 -89h-127z" />
    <glyph glyph-name="yacute" unicode="&#xfd;" horiz-adv-x="560" 
d="M241 -194h-141l116 256l-209 430h149l131 -288l121 288h142zM449 701l-136 -150h-107l91 150h152z" />
    <glyph glyph-name="thorn" unicode="&#xfe;" horiz-adv-x="612" 
d="M204 -190h-133v914h133v-286c24 35 77 65 147 65c144 0 227 -110 227 -256c0 -149 -93 -259 -232 -259c-68 0 -118 27 -142 60v-238zM447 246c0 87 -54 138 -122 138s-123 -51 -123 -138s55 -139 123 -139s122 51 122 139z" />
    <glyph glyph-name="ydieresis" unicode="&#xff;" horiz-adv-x="560" 
d="M241 -194h-141l116 256l-209 430h149l131 -288l121 288h142zM107 628c0 39 31 71 70 71s71 -32 71 -71s-32 -70 -71 -70s-70 31 -70 70zM317 628c0 39 30 71 70 71c39 0 71 -32 71 -71s-32 -70 -71 -70c-40 0 -70 31 -70 70z" />
    <glyph glyph-name="dotlessi" unicode="&#x131;" horiz-adv-x="275" 
d="M204 0h-133v492h133v-492z" />
    <glyph glyph-name="Lslash" unicode="&#x141;" horiz-adv-x="582" 
d="M557 0h-454v259l-92 -42v111l92 42v339h138v-276l161 73v-111l-161 -73v-190h316v-132z" />
    <glyph glyph-name="lslash" unicode="&#x142;" horiz-adv-x="327" 
d="M229 0h-133v258l-85 -39v111l85 39v355h133v-295l87 40v-111l-87 -40v-318z" />
    <glyph glyph-name="OE" unicode="&#x152;" horiz-adv-x="1126" 
d="M182 355c0 -160 112 -236 221 -236c110 0 222 76 222 236s-112 236 -222 236c-109 0 -221 -76 -221 -236zM1069 0h-444v71c-54 -56 -129 -86 -222 -86c-192 0 -364 141 -364 369c0 229 172 370 364 370c93 0 168 -31 222 -87v72h444v-130h-306v-162h277v-123h-277v-164
h306v-130z" />
    <glyph glyph-name="oe" unicode="&#x153;" horiz-adv-x="937" 
d="M552 302h220c-2 49 -34 97 -110 97c-69 0 -107 -52 -110 -97zM292 106c65 0 125 47 125 140s-60 140 -125 140s-125 -47 -125 -140c0 -92 60 -140 125 -140zM292 507c77 0 144 -30 190 -80c46 51 110 80 178 80c152 0 243 -97 243 -255c0 -19 -2 -39 -2 -41h-352
c3 -65 58 -112 124 -112c62 0 96 31 112 75l111 -33c-25 -85 -103 -156 -224 -156c-73 0 -142 28 -189 81c-47 -51 -114 -81 -191 -81c-147 0 -258 110 -258 261c0 152 111 261 258 261z" />
    <glyph glyph-name="Scaron" unicode="&#x160;" horiz-adv-x="604" 
d="M121 886h124l66 -64l67 64h121l-122 -127h-136zM558 540l-124 -38c-7 39 -39 100 -129 100c-67 0 -111 -43 -111 -90c0 -39 25 -70 77 -80l99 -19c129 -25 198 -109 198 -209c0 -109 -91 -219 -256 -219c-188 0 -271 121 -282 222l128 34c6 -70 55 -133 155 -133
c74 0 115 37 115 87c0 41 -31 73 -86 84l-99 20c-113 23 -186 96 -186 203c0 126 113 222 247 222c172 0 238 -104 254 -184z" />
    <glyph glyph-name="scaron" unicode="&#x161;" horiz-adv-x="461" 
d="M55 700h107l70 -75l70 75h105l-109 -148h-133zM29 137l114 25c3 -39 32 -75 90 -75c44 0 65 23 65 49c0 22 -15 40 -53 48l-65 15c-95 21 -138 78 -138 147c0 88 78 161 184 161c140 0 187 -89 193 -142l-111 -25c-4 29 -25 66 -81 66c-35 0 -63 -21 -63 -49
c0 -24 18 -39 45 -44l70 -15c97 -20 146 -79 146 -151c0 -80 -62 -162 -191 -162c-148 0 -199 96 -205 152z" />
    <glyph glyph-name="Ydieresis" unicode="&#x178;" horiz-adv-x="655" 
d="M139 823c0 40 31 72 72 72s73 -32 73 -72c0 -41 -32 -72 -73 -72s-72 31 -72 72zM376 823c0 40 31 72 72 72c40 0 72 -32 72 -72c0 -41 -32 -72 -72 -72c-41 0 -72 31 -72 72zM257 298l-247 411h162l159 -281l159 281h155l-250 -411v-298h-138v298z" />
    <glyph glyph-name="Zcaron" unicode="&#x17d;" horiz-adv-x="640" 
d="M137 886h124l66 -64l67 64h121l-122 -127h-136zM597 0h-558v134l369 444h-356v131h540v-129l-375 -448h380v-132z" />
    <glyph glyph-name="zcaron" unicode="&#x17e;" horiz-adv-x="481" 
d="M68 700h107l70 -75l70 75h105l-109 -148h-133zM444 0h-407v117l233 260h-227v115h397v-111l-240 -265h244v-116z" />
    <glyph glyph-name="florin" unicode="&#x192;" horiz-adv-x="513" 
d="M119 27l71 352h-98v112h121l19 92c22 111 107 157 187 157c46 0 61 -4 89 -13v-115c-18 4 -38 7 -62 7c-27 0 -71 -9 -84 -75l-11 -53h117v-112h-140l-79 -392c-22 -110 -107 -157 -187 -157c-47 0 -65 5 -92 14v114c18 -4 40 -7 65 -7c27 0 71 10 84 76z" />
    <glyph glyph-name="circumflex" unicode="&#x2c6;" horiz-adv-x="404" 
d="M130 552h-104l110 147h132l110 -147h-107l-71 75z" />
    <glyph glyph-name="caron" unicode="&#x2c7;" horiz-adv-x="404" 
d="M26 700h107l70 -75l70 75h105l-109 -148h-133z" />
    <glyph glyph-name="uni02C9" unicode="&#x2c9;" horiz-adv-x="335" 
d="M308 577h-281v97h281v-97z" />
    <glyph glyph-name="breve" unicode="&#x2d8;" horiz-adv-x="374" 
d="M187 549c-105 0 -159 73 -161 151h89c2 -27 22 -59 72 -59s70 32 72 59h89c-2 -78 -55 -151 -161 -151z" />
    <glyph glyph-name="dotaccent" unicode="&#x2d9;" horiz-adv-x="192" 
d="M16 627c0 45 36 79 80 79s80 -34 80 -79c0 -44 -36 -78 -80 -78s-80 34 -80 78z" />
    <glyph glyph-name="ring" unicode="&#x2da;" horiz-adv-x="282" 
d="M256 648c0 -64 -54 -110 -115 -110s-115 46 -115 110c0 65 54 112 115 112s115 -47 115 -112zM181 648c0 25 -18 42 -41 42s-40 -17 -40 -42c0 -24 17 -41 40 -41s41 17 41 41z" />
    <glyph glyph-name="ogonek" unicode="&#x2db;" horiz-adv-x="224" 
d="M146 -223c-71 0 -123 42 -123 107c0 75 58 112 103 132l72 -16c-38 -18 -79 -51 -79 -94c0 -30 21 -45 51 -45c10 0 20 1 28 3v-79c-13 -5 -29 -8 -52 -8z" />
    <glyph glyph-name="tilde" unicode="&#x2dc;" horiz-adv-x="391" 
d="M369 696v-18c0 -83 -45 -123 -107 -123c-28 0 -52 9 -71 22l-6 4c-13 8 -23 18 -47 18c-21 0 -34 -12 -35 -43h-82v21c0 81 48 121 109 121c29 0 51 -11 72 -22l6 -4c17 -10 32 -19 48 -19c21 0 33 14 33 43h80z" />
    <glyph glyph-name="hungarumlaut" unicode="&#x2dd;" horiz-adv-x="396" 
d="M205 701l-97 -150h-84l52 150h129zM372 701l-112 -150h-85l66 150h131z" />
    <glyph glyph-name="uni0394" unicode="&#x394;" horiz-adv-x="691" 
d="M0 0l270 709h150l271 -709h-691zM345 559l-154 -431h309z" />
    <glyph glyph-name="uni03A9" unicode="&#x3a9;" horiz-adv-x="782" 
d="M391 595c-103 0 -203 -71 -203 -201c0 -113 81 -186 166 -204v-190h-302v126h179c-98 39 -186 138 -186 277c0 198 163 322 346 322s346 -124 346 -322c0 -139 -89 -238 -187 -277h179v-126h-302v190c85 18 167 91 167 204c0 130 -100 201 -203 201z" />
    <glyph glyph-name="uni03BC" unicode="&#x3bc;" horiz-adv-x="594" 
d="M399 0c-2 10 -4 33 -4 53c-27 -46 -84 -66 -136 -66c-20 0 -38 2 -54 7v-184h-133v682h133v-284c0 -55 28 -99 90 -99c59 0 93 40 93 97v286h133v-403c0 -40 3 -76 5 -89h-127z" />
    <glyph glyph-name="pi" unicode="&#x3c0;" horiz-adv-x="638" 
d="M597 5c-4 -2 -29 -13 -70 -13c-96 0 -142 59 -142 143v243h-133v-378h-133v378h-83v114h559v-114h-78v-225c0 -36 24 -47 49 -47c16 0 21 2 31 3v-104z" />
    <glyph glyph-name="uni2007" unicode="&#x2007;" horiz-adv-x="624" 
 />
    <glyph glyph-name="uni2008" unicode="&#x2008;" horiz-adv-x="311" 
 />
    <glyph glyph-name="uni200B" unicode="&#x200b;" horiz-adv-x="0" 
 />
    <glyph glyph-name="endash" unicode="&#x2013;" horiz-adv-x="640" 
d="M578 239h-516v115h516v-115z" />
    <glyph glyph-name="emdash" unicode="&#x2014;" horiz-adv-x="1084" 
d="M1012 239h-940v115h940v-115z" />
    <glyph glyph-name="quoteleft" unicode="&#x2018;" horiz-adv-x="233" 
d="M199 508c0 -39 -31 -73 -78 -73c-53 0 -87 43 -87 96c0 134 92 179 155 185v-61c-38 -6 -80 -37 -82 -83c5 3 12 5 21 5c45 0 71 -27 71 -69z" />
    <glyph glyph-name="quoteright" unicode="&#x2019;" horiz-adv-x="235" 
d="M34 643c0 39 33 73 80 73c53 0 87 -44 87 -97c0 -134 -92 -183 -155 -189v61c38 6 80 39 82 85c-5 -3 -12 -5 -21 -5c-45 0 -73 30 -73 72z" />
    <glyph glyph-name="quotesinglbase" unicode="&#x201a;" horiz-adv-x="235" 
d="M34 69c0 39 33 72 80 72c53 0 87 -43 87 -97c0 -134 -92 -183 -155 -189v62c38 5 80 38 82 84c-5 -3 -13 -5 -21 -5c-45 0 -73 30 -73 73z" />
    <glyph glyph-name="quotedblleft" unicode="&#x201c;" horiz-adv-x="430" 
d="M199 508c0 -39 -31 -73 -78 -73c-53 0 -87 43 -87 96c0 134 92 179 155 185v-61c-38 -6 -80 -37 -82 -83c5 3 12 5 21 5c45 0 71 -27 71 -69zM396 508c0 -39 -31 -73 -78 -73c-53 0 -87 43 -87 96c0 134 92 179 155 185v-61c-38 -6 -80 -37 -82 -83c5 3 12 5 21 5
c45 0 71 -27 71 -69z" />
    <glyph glyph-name="quotedblright" unicode="&#x201d;" horiz-adv-x="429" 
d="M34 643c0 39 33 73 80 73c53 0 87 -44 87 -97c0 -134 -92 -183 -155 -189v61c38 6 80 39 82 85c-5 -3 -12 -5 -21 -5c-45 0 -73 30 -73 72zM230 643c0 39 33 73 80 73c53 0 87 -44 87 -97c0 -134 -92 -183 -155 -189v61c38 6 80 39 82 85c-5 -3 -12 -5 -21 -5
c-45 0 -73 30 -73 72z" />
    <glyph glyph-name="quotedblbase" unicode="&#x201e;" horiz-adv-x="429" 
d="M34 70c0 39 33 72 80 72c53 0 87 -43 87 -97c0 -134 -92 -183 -155 -189v62c38 5 80 38 82 84c-5 -3 -14 -5 -22 -5c-45 0 -72 30 -72 73zM228 70c0 39 33 72 80 72c53 0 87 -43 87 -97c0 -134 -92 -183 -155 -189v62c38 5 80 38 82 84c-5 -3 -14 -5 -22 -5
c-45 0 -72 30 -72 73z" />
    <glyph glyph-name="dagger" unicode="&#x2020;" horiz-adv-x="413" 
d="M262 163h-111v300h-123v104h123v142h111v-142h123v-104h-123v-300z" />
    <glyph glyph-name="daggerdbl" unicode="&#x2021;" horiz-adv-x="453" 
d="M48 247h123v215h-123v103h123v144h111v-144h123v-103h-123v-215h123v-103h-123v-144h-111v144h-123v103z" />
    <glyph glyph-name="bullet" unicode="&#x2022;" horiz-adv-x="532" 
d="M58 299c0 115 94 209 208 209c115 0 208 -94 208 -209c0 -114 -93 -209 -208 -209c-114 0 -208 95 -208 209z" />
    <glyph glyph-name="ellipsis" unicode="&#x2026;" horiz-adv-x="921" 
d="M846 70c0 -44 -36 -80 -81 -80c-44 0 -80 36 -80 80c0 45 36 81 80 81c45 0 81 -36 81 -81zM541 70c0 -44 -36 -80 -81 -80c-44 0 -81 36 -81 80c0 45 37 81 81 81c45 0 81 -36 81 -81zM236 70c0 -44 -35 -80 -80 -80s-81 36 -81 80c0 45 36 81 81 81s80 -36 80 -81z" />
    <glyph glyph-name="perthousand" unicode="&#x2030;" horiz-adv-x="1084" 
d="M144 496c0 -42 29 -70 66 -70c38 0 66 28 66 70c0 40 -28 69 -66 69c-37 0 -66 -29 -66 -69zM44 496c0 91 76 163 166 163s167 -72 167 -163c0 -94 -77 -163 -167 -163c-91 0 -166 71 -166 163zM580 153c0 -42 29 -70 67 -70s67 29 67 70s-29 69 -67 69s-67 -28 -67 -69z
M258 0h-116l458 649h116zM809 153c0 -42 30 -70 67 -70c38 0 67 29 67 70s-29 69 -67 69c-37 0 -67 -28 -67 -69zM480 153c0 92 77 164 167 164c48 0 88 -20 115 -53c26 32 66 53 114 53c90 0 168 -72 168 -164c0 -93 -78 -163 -168 -163c-49 0 -88 20 -114 52
c-27 -33 -67 -52 -116 -52c-90 0 -166 72 -166 163z" />
    <glyph glyph-name="guilsinglleft" unicode="&#x2039;" horiz-adv-x="307" 
d="M290 101h-126l-137 194l138 197h125l-136 -198z" />
    <glyph glyph-name="guilsinglright" unicode="&#x203a;" horiz-adv-x="307" 
d="M144 101h-126l135 193l-136 198h126l137 -197z" />
    <glyph glyph-name="uni2042" unicode="&#x2042;" horiz-adv-x="837" 
d="M463 708v-111l101 34l29 -85l-103 -33l65 -87l-72 -53l-67 88l-64 -88l-72 54l63 86l-102 33l28 85l101 -34v111h93zM256 322v-111l101 34l29 -85l-103 -33l65 -87l-72 -53l-67 88l-64 -88l-72 54l63 86l-102 33l28 85l101 -34v111h93zM674 322v-111l101 34l29 -85
l-103 -33l65 -87l-72 -53l-67 88l-64 -88l-72 54l63 86l-102 33l28 85l101 -34v111h93z" />
    <glyph glyph-name="fraction" unicode="&#x2044;" horiz-adv-x="574" 
d="M116 0h-116l458 649h116z" />
    <glyph glyph-name="uni2051" unicode="&#x2051;" horiz-adv-x="428" 
d="M260 708v-111l101 34l29 -85l-103 -33l65 -87l-72 -53l-67 88l-64 -88l-72 54l63 86l-102 33l28 85l101 -34v111h93zM260 325v-111l101 34l29 -85l-103 -33l65 -87l-72 -53l-67 88l-64 -88l-72 54l63 86l-102 33l28 85l101 -34v111h93z" />
    <glyph glyph-name="uni2070" unicode="&#x2070;" horiz-adv-x="434" 
d="M155 525c0 -50 8 -107 62 -107c55 0 63 57 63 107s-8 108 -63 108c-54 0 -62 -57 -62 -108zM51 525c0 46 8 94 36 131c26 35 67 61 130 61s105 -26 131 -61c27 -37 35 -85 35 -131s-8 -93 -35 -130c-26 -36 -68 -61 -131 -61s-104 25 -130 61c-28 37 -36 84 -36 130z" />
    <glyph glyph-name="uni2074" unicode="&#x2074;" horiz-adv-x="441" 
d="M51 412v99l169 198h109v-218h61v-79h-61v-71h-100v71h-178zM229 491v114l-97 -114h97z" />
    <glyph glyph-name="uni2075" unicode="&#x2075;" horiz-adv-x="405" 
d="M51 445l89 23c4 -31 30 -50 61 -50s53 18 53 48c0 35 -23 51 -56 51c-21 0 -40 -9 -52 -22l-83 25l46 189h222v-83h-162l-15 -63c17 15 45 23 71 23c78 0 129 -45 129 -119c0 -72 -55 -132 -153 -132c-81 0 -141 50 -150 110z" />
    <glyph glyph-name="uni2076" unicode="&#x2076;" horiz-adv-x="419" 
d="M353 699l-18 -77c-19 7 -41 12 -65 12c-52 0 -102 -24 -117 -82c19 20 51 32 85 32c73 0 130 -41 130 -119s-66 -133 -157 -133c-87 0 -160 61 -160 169c0 134 93 214 213 214c31 0 62 -5 89 -16zM157 462c0 -29 26 -49 54 -49c29 0 54 20 54 49c0 31 -25 50 -54 50
c-28 0 -54 -19 -54 -50z" />
    <glyph glyph-name="uni2077" unicode="&#x2077;" horiz-adv-x="409" 
d="M358 709v-85c-34 -27 -126 -110 -142 -283h-107c13 183 128 284 128 284h-186v84h307z" />
    <glyph glyph-name="uni2078" unicode="&#x2078;" horiz-adv-x="420" 
d="M210 562c29 0 45 18 45 39c0 17 -15 36 -45 36c-31 0 -46 -19 -46 -36c0 -21 16 -39 46 -39zM210 412c38 0 55 21 55 43c0 20 -18 40 -55 40c-38 0 -55 -20 -55 -40c0 -22 16 -43 55 -43zM210 333c-99 0 -156 45 -156 110c0 40 30 74 73 87c-40 13 -62 47 -62 82
c0 59 53 104 145 104c91 0 144 -45 144 -104c0 -35 -22 -69 -62 -82c41 -12 74 -46 74 -85c0 -66 -56 -112 -156 -112z" />
    <glyph glyph-name="uni2079" unicode="&#x2079;" horiz-adv-x="418" 
d="M70 349l17 78c18 -6 40 -12 63 -12c54 0 106 20 119 83c-19 -21 -53 -33 -86 -33c-69 0 -132 42 -132 119c0 78 62 133 157 133c87 0 158 -62 158 -170c0 -138 -89 -214 -205 -214c-31 0 -63 5 -91 16zM259 587c0 29 -25 49 -54 49c-30 0 -54 -20 -54 -49
c0 -31 24 -51 54 -51c29 0 54 20 54 51z" />
    <glyph glyph-name="uni2080" unicode="&#x2080;" horiz-adv-x="434" 
d="M155 110c0 -50 8 -107 62 -107c55 0 63 57 63 107s-8 108 -63 108c-54 0 -62 -57 -62 -108zM51 110c0 46 8 94 36 131c26 35 67 61 130 61s105 -26 131 -61c27 -37 35 -85 35 -131s-8 -93 -35 -130c-26 -36 -68 -61 -131 -61s-104 25 -130 61c-28 37 -36 84 -36 130z" />
    <glyph glyph-name="uni2081" unicode="&#x2081;" horiz-adv-x="307" 
d="M232 -104h-103v223h-91v66c63 0 96 42 103 78h91v-367z" />
    <glyph glyph-name="uni2082" unicode="&#x2082;" horiz-adv-x="394" 
d="M149 120l-91 -1c-2 7 -4 18 -4 29c0 69 50 124 144 124c90 0 142 -56 142 -122c0 -48 -29 -82 -79 -112l-70 -42c-7 -4 -12 -9 -12 -15h164v-85h-291v12c0 65 23 118 89 157l60 35c25 15 38 32 38 51c0 18 -14 39 -42 39c-31 0 -51 -19 -51 -52c0 -5 1 -12 3 -18z" />
    <glyph glyph-name="uni2083" unicode="&#x2083;" horiz-adv-x="411" 
d="M51 4l91 21c3 -30 27 -53 61 -53c33 0 54 19 54 44c0 32 -26 45 -53 45c-13 0 -25 -3 -32 -6l-33 68l87 59h-161v83h284v-82l-90 -61c59 -8 101 -45 101 -108c0 -67 -60 -125 -157 -125c-90 0 -144 56 -152 115z" />
    <glyph glyph-name="uni2084" unicode="&#x2084;" horiz-adv-x="441" 
d="M51 -33v99l169 198h109v-218h61v-79h-61v-71h-100v71h-178zM229 46v114l-97 -114h97z" />
    <glyph glyph-name="uni2085" unicode="&#x2085;" horiz-adv-x="405" 
d="M51 0l89 23c4 -31 30 -50 61 -50s53 18 53 48c0 35 -23 51 -56 51c-21 0 -40 -9 -52 -22l-83 25l46 189h222v-83h-162l-15 -63c17 15 45 23 71 23c78 0 129 -45 129 -119c0 -72 -55 -132 -153 -132c-81 0 -141 50 -150 110z" />
    <glyph glyph-name="uni2086" unicode="&#x2086;" horiz-adv-x="419" 
d="M353 255l-18 -77c-19 7 -41 12 -65 12c-52 0 -102 -24 -117 -82c19 20 51 32 85 32c73 0 130 -41 130 -119s-66 -133 -157 -133c-87 0 -160 61 -160 169c0 134 93 214 213 214c31 0 62 -5 89 -16zM157 18c0 -29 26 -49 54 -49c29 0 54 20 54 49c0 31 -25 50 -54 50
c-28 0 -54 -19 -54 -50z" />
    <glyph glyph-name="uni2087" unicode="&#x2087;" horiz-adv-x="409" 
d="M358 263v-85c-34 -27 -126 -110 -142 -283h-107c13 183 128 284 128 284h-186v84h307z" />
    <glyph glyph-name="uni2088" unicode="&#x2088;" horiz-adv-x="420" 
d="M210 117c29 0 45 18 45 39c0 17 -15 36 -45 36c-31 0 -46 -19 -46 -36c0 -21 16 -39 46 -39zM210 -33c38 0 55 21 55 43c0 20 -18 40 -55 40c-38 0 -55 -20 -55 -40c0 -22 16 -43 55 -43zM210 -112c-99 0 -156 45 -156 110c0 40 30 74 73 87c-40 13 -62 47 -62 82
c0 59 53 104 145 104c91 0 144 -45 144 -104c0 -35 -22 -69 -62 -82c41 -12 74 -46 74 -85c0 -66 -56 -112 -156 -112z" />
    <glyph glyph-name="uni2089" unicode="&#x2089;" horiz-adv-x="418" 
d="M70 -95l17 78c18 -6 40 -12 63 -12c54 0 106 20 119 83c-19 -21 -53 -33 -86 -33c-69 0 -132 42 -132 119c0 78 62 133 157 133c87 0 158 -62 158 -170c0 -138 -89 -214 -205 -214c-31 0 -63 5 -91 16zM259 143c0 29 -25 49 -54 49c-30 0 -54 -20 -54 -49
c0 -31 24 -51 54 -51c29 0 54 20 54 51z" />
    <glyph glyph-name="Euro" unicode="&#x20ac;" horiz-adv-x="679" 
d="M601 149l62 -99c-46 -37 -114 -66 -194 -66c-141 0 -266 77 -314 212h-93v94h73c-1 18 -1 23 -1 32c0 8 0 16 1 32h-73v94h93c48 136 176 216 314 216c73 0 127 -17 172 -46l-51 -105c-31 21 -73 31 -121 31c-68 0 -133 -30 -169 -96h260l-44 -94h-242
c-2 -14 -2 -22 -2 -33c0 -6 0 -13 2 -31h216l-43 -94h-144c35 -61 97 -90 166 -90c54 0 100 16 132 43z" />
    <glyph glyph-name="uni2113" unicode="&#x2113;" horiz-adv-x="429" 
d="M29 271c13 3 39 10 69 23v202c0 104 64 167 152 167c91 0 150 -58 150 -159c0 -99 -68 -206 -180 -278v-37c0 -58 38 -78 68 -78c55 0 81 18 91 25v-111c-4 -5 -35 -30 -105 -30c-117 0 -176 75 -176 171v5c-22 -7 -45 -13 -69 -17v117zM279 509c0 28 -11 41 -29 41
c-15 0 -30 -10 -30 -48v-130c33 34 59 79 59 137z" />
    <glyph glyph-name="trademark" unicode="&#x2122;" horiz-adv-x="876" 
d="M334 625h-103v-281h-94v281h-104v84h301v-84zM816 344h-91v222l-89 -222h-68l-90 219v-219h-91v365h128l89 -214l86 214h126v-365z" />
    <glyph glyph-name="Omega" unicode="&#x2126;" horiz-adv-x="782" 
d="M391 595c-103 0 -203 -71 -203 -201c0 -113 81 -186 166 -204v-190h-302v126h179c-98 39 -186 138 -186 277c0 198 163 322 346 322s346 -124 346 -322c0 -139 -89 -238 -187 -277h179v-126h-302v190c85 18 167 91 167 204c0 130 -100 201 -203 201z" />
    <glyph glyph-name="uni2160" unicode="&#x2160;" horiz-adv-x="498" 
d="M452 649v-117h-134v-415h134v-117h-406v117h135v415h-135v117h406z" />
    <glyph glyph-name="uni2161" unicode="&#x2161;" horiz-adv-x="786" 
d="M740 117v-117h-694v117h137v415h-137v117h694v-117h-136v-415h136zM467 117v415h-147v-415h147z" />
    <glyph glyph-name="uni2162" unicode="&#x2162;" horiz-adv-x="1060" 
d="M1014 117v-117h-968v117h137v415h-137v117h968v-117h-136v-415h136zM741 117v415h-142v-415h142zM320 532v-415h142v415h-142z" />
    <glyph glyph-name="uni2163" unicode="&#x2163;" horiz-adv-x="1053" 
d="M1007 117v-117h-961v117h132v415h-132v117h961v-117h-108l-134 -415h242zM315 532v-415h213l-136 415h-77zM648 166l112 366h-224z" />
    <glyph glyph-name="uni2164" unicode="&#x2164;" horiz-adv-x="808" 
d="M762 649v-117h-106l-134 -415h238v-117h-712v117h237l-136 415h-103v117h716zM405 166l112 366h-224z" />
    <glyph glyph-name="uni2165" unicode="&#x2165;" horiz-adv-x="1050" 
d="M1004 117v-117h-958v117h240l-136 415h-104v117h958v-117h-131v-415h131zM659 532l-135 -415h212v415h-77zM407 166l112 366h-225z" />
    <glyph glyph-name="uni2166" unicode="&#x2166;" horiz-adv-x="1330" 
d="M1284 117v-117h-1238v117h240l-136 415h-104v117h1237v-117h-135v-415h136zM1011 117v415h-139v-415h139zM658 532l-135 -415h212v415h-77zM407 166l111 366h-224z" />
    <glyph glyph-name="uni2167" unicode="&#x2167;" horiz-adv-x="1594" 
d="M1548 117v-117h-1502v117h239l-134 415h-105v117h1501v-117h-133v-415h134zM654 532l-132 -415h211v415h-79zM870 532v-415h135v415h-135zM1142 532v-415h135v415h-135zM405 166l110 366h-220z" />
    <glyph glyph-name="uni2168" unicode="&#x2168;" horiz-adv-x="1026" 
d="M980 117v-117h-934v117h132v415h-132v117h934v-117h-103l-154 -213l149 -202h108zM549 321l-154 211h-80v-415h83zM556 532l81 -115l81 115h-162zM634 225l-77 -108h154z" />
    <glyph glyph-name="uni2169" unicode="&#x2169;" horiz-adv-x="780" 
d="M734 649v-117h-103l-154 -213l149 -202h108v-117h-688v117h106l151 204l-154 211h-103v117h688zM310 532l80 -115l81 115h-161zM388 225l-77 -108h153z" />
    <glyph glyph-name="uni216C" unicode="&#x216c;" horiz-adv-x="658" 
d="M612 292v-292h-566v117h117v415h-117v117h382v-117h-128v-415h181v175h131z" />
    <glyph glyph-name="uni216D" unicode="&#x216d;" horiz-adv-x="736" 
d="M690 245v-245h-134v60c-37 -43 -94 -75 -182 -75c-179 0 -328 133 -328 339s151 340 326 340c87 0 143 -32 180 -73v58h133v-240h-133c-10 60 -58 134 -174 134c-99 0 -199 -69 -199 -219c0 -141 94 -216 201 -216c120 0 167 83 176 137h134z" />
    <glyph glyph-name="uni216E" unicode="&#x216e;" horiz-adv-x="743" 
d="M382 649c186 -2 315 -124 315 -325c0 -203 -132 -324 -320 -324h-331v117h123v415h-123v117h336zM306 117h65c104 1 187 70 187 207c0 138 -84 208 -189 208h-63v-415z" />
    <glyph glyph-name="uni216F" unicode="&#x216f;" horiz-adv-x="1051" 
d="M375 117v-117h-329v117h117v415h-117v117h305l173 -433l169 433h312v-117h-117v-415h117v-117h-335v117h83v330l-179 -441h-101l-178 439v-328h80z" />
    <glyph glyph-name="arrowleft" unicode="&#x2190;" horiz-adv-x="1062" 
d="M254 72l-263 225l263 225v-168h747v-115h-747v-167z" />
    <glyph glyph-name="arrowup" unicode="&#x2191;" horiz-adv-x="486" 
d="M262 800l229 -267h-172v-680h-114v680h-174z" />
    <glyph glyph-name="arrowright" unicode="&#x2192;" horiz-adv-x="1085" 
d="M1050 297l-294 -235v177h-731v115h731v179z" />
    <glyph glyph-name="arrowdown" unicode="&#x2193;" horiz-adv-x="478" 
d="M460 117l-234 -269l-235 269h178v677h114v-677h177z" />
    <glyph glyph-name="uni2196" unicode="&#x2196;" horiz-adv-x="876" 
d="M64 708h332l-125 -126l514 -513l-81 -81l-514 513l-126 -127v334z" />
    <glyph glyph-name="uni2197" unicode="&#x2197;" horiz-adv-x="757" 
d="M334 708h332v-334l-127 127l-513 -513l-81 81l513 513z" />
    <glyph glyph-name="uni2198" unicode="&#x2198;" horiz-adv-x="858" 
d="M767 1h-332l124 125l-513 514l81 81l513 -514l127 128v-334z" />
    <glyph glyph-name="uni2199" unicode="&#x2199;" horiz-adv-x="748" 
d="M368 1h-332v334l126 -128l514 514l81 -81l-514 -514z" />
    <glyph glyph-name="uni21A9" unicode="&#x21a9;" horiz-adv-x="861" 
d="M241 50l-263 224l263 226v-169h360c70 0 125 42 125 103c0 63 -51 103 -127 103h-195v115h201c142 0 239 -94 239 -218s-96 -219 -239 -219h-364v-165z" />
    <glyph glyph-name="uni21B0" unicode="&#x21b0;" horiz-adv-x="804" 
d="M301 274l-263 225l263 226v-168h422v-557h-114v442h-308v-168z" />
    <glyph glyph-name="uni21B1" unicode="&#x21b1;" horiz-adv-x="749" 
d="M150 0h-115v557h442v168l263 -226l-263 -225v168h-327v-442z" />
    <glyph glyph-name="uni21B2" unicode="&#x21b2;" horiz-adv-x="771" 
d="M578 709h114v-557h-442v-168l-263 226l263 225v-168h328v442z" />
    <glyph glyph-name="uni21B3" unicode="&#x21b3;" horiz-adv-x="851" 
d="M515 435l263 -225l-263 -226v168h-442v557h115v-442h327v168z" />
    <glyph glyph-name="uni21B4" unicode="&#x21b4;" horiz-adv-x="799" 
d="M61 594v115h565v-467h168l-223 -257l-225 257h165v352h-450z" />
    <glyph glyph-name="uni21C6" unicode="&#x21c6;" horiz-adv-x="1167" 
d="M1112 162l-263 -224v167h-757v115h757v168zM327 332l-263 224l263 226v-170h756v-115h-756v-165z" />
    <glyph glyph-name="partialdiff" unicode="&#x2202;" horiz-adv-x="621" 
d="M252 600c-29 0 -83 -5 -145 -34l-46 106c68 38 143 49 199 49c127 0 321 -62 321 -373c0 -207 -93 -364 -290 -364c-131 0 -255 82 -255 244c0 148 124 231 244 231c92 0 138 -30 161 -56c-7 142 -90 197 -189 197zM310 346c-94 0 -139 -55 -139 -124
c0 -73 63 -115 125 -115c111 0 147 105 148 183c-30 35 -76 56 -134 56z" />
    <glyph glyph-name="Delta" unicode="&#x2206;" horiz-adv-x="691" 
d="M0 0l270 709h150l271 -709h-691zM345 559l-154 -431h309z" />
    <glyph glyph-name="product" unicode="&#x220f;" horiz-adv-x="686" 
d="M605 0h-138v582h-248v-582h-138v709h524v-709z" />
    <glyph glyph-name="summation" unicode="&#x2211;" horiz-adv-x="569" 
d="M36 0v125l256 229l-256 230v125h514v-128h-325l252 -227l-261 -226h334v-128h-514z" />
    <glyph glyph-name="minus" unicode="&#x2212;" horiz-adv-x="573" 
d="M524 241h-475v109h475v-109z" />
    <glyph glyph-name="uni2215" unicode="&#x2215;" horiz-adv-x="444" 
d="M444 658l-324 -668h-120l323 668h121z" />
    <glyph glyph-name="uni2219" unicode="&#x2219;" horiz-adv-x="288" 
d="M61 309c0 48 38 85 86 85s86 -37 86 -85s-38 -84 -86 -84s-86 36 -86 84z" />
    <glyph glyph-name="radical" unicode="&#x221a;" horiz-adv-x="697" 
d="M729 768h-131l-258 -768h-118l-190 537h130l120 -354l228 696h219v-111z" />
    <glyph glyph-name="infinity" unicode="&#x221e;" horiz-adv-x="831" 
d="M414 201c-58 -63 -113 -96 -180 -96c-111 0 -192 79 -192 185s81 186 192 186c66 0 128 -35 183 -99c57 62 116 99 180 99c111 0 192 -80 192 -186s-81 -185 -192 -185c-68 0 -126 32 -183 96zM236 362c-46 0 -75 -32 -75 -73s29 -72 75 -72c39 0 74 30 107 70
c-35 42 -67 75 -107 75zM595 217c46 0 75 31 75 72s-29 73 -75 73c-40 0 -71 -31 -107 -73c34 -41 68 -72 107 -72z" />
    <glyph glyph-name="integral" unicode="&#x222b;" horiz-adv-x="350" 
d="M109 -17v542c0 113 70 185 185 185h51v-118h-45c-35 0 -58 -23 -58 -65v-542c0 -113 -69 -185 -183 -185h-54v117h46c34 0 58 24 58 66z" />
    <glyph glyph-name="approxequal" unicode="&#x2248;" horiz-adv-x="594" 
d="M492 463l70 -59c-36 -64 -95 -100 -162 -100c-35 0 -72 10 -108 30l-47 26c-19 10 -37 15 -55 15c-32 0 -63 -18 -86 -48l-72 59c37 65 95 101 161 101c35 0 71 -10 108 -30l48 -26c18 -10 37 -16 56 -16c32 0 62 15 87 48zM492 261l70 -58c-37 -64 -95 -100 -161 -100
c-37 0 -72 9 -109 30l-47 26c-17 9 -35 14 -52 14c-33 0 -65 -16 -89 -47l-72 59c37 65 96 101 162 101c35 0 70 -10 107 -30l48 -26c18 -10 38 -16 57 -16c32 0 63 15 86 47z" />
    <glyph glyph-name="notequal" unicode="&#x2260;" horiz-adv-x="603" 
d="M544 142h-279l-63 -97h-120l63 97h-86v108h157l59 91h-216v107h286l60 92h120l-60 -92h79v-107h-149l-59 -91h208v-108z" />
    <glyph glyph-name="lessequal" unicode="&#x2264;" horiz-adv-x="545" 
d="M56 153h430v-109h-430v109zM56 316v108l430 136v-110l-279 -78l279 -79v-112z" />
    <glyph glyph-name="greaterequal" unicode="&#x2265;" horiz-adv-x="545" 
d="M59 153h430v-109h-430v109zM489 424v-108l-430 -135v110l279 78l-279 79v112z" />
    <glyph glyph-name="dotmath" unicode="&#x22c5;" horiz-adv-x="288" 
d="M61 309c0 48 38 85 86 85s86 -37 86 -85s-38 -84 -86 -84s-86 36 -86 84z" />
    <glyph glyph-name="uni24C5" unicode="&#x24c5;" horiz-adv-x="816" 
d="M124 354c0 -163 124 -291 283 -291s283 128 283 291c0 164 -124 292 -283 292s-283 -128 -283 -292zM39 354c0 204 164 371 368 371s370 -167 370 -371c0 -203 -166 -370 -370 -370s-368 167 -368 370zM377 370h54c36 0 58 21 58 53c0 33 -22 54 -58 54h-54v-107z
M448 292h-71v-137h-94v400h165c78 0 137 -59 137 -132c0 -72 -59 -131 -137 -131z" />
    <glyph glyph-name="filledbox" unicode="&#x25a0;" horiz-adv-x="908" 
d="M101 0v709h706v-709h-706z" />
    <glyph glyph-name="H22073" unicode="&#x25a1;" horiz-adv-x="908" 
d="M807 0h-706v709h706v-709zM215 597v-486h475v486h-475z" />
    <glyph glyph-name="triagup" unicode="&#x25b2;" horiz-adv-x="838" 
d="M421 725l417 -725h-838z" />
    <glyph glyph-name="uni25B3" unicode="&#x25b3;" horiz-adv-x="838" 
d="M419 725l419 -725h-838zM639 112l-220 384l-221 -384h441z" />
    <glyph glyph-name="lozenge" unicode="&#x25ca;" horiz-adv-x="617" 
d="M180 354l129 -222l128 222l-128 223zM29 354l207 355h145l207 -355l-207 -354h-145z" />
    <glyph glyph-name="circle" unicode="&#x25cb;" horiz-adv-x="813" 
d="M36 354c0 205 166 371 371 371s370 -166 370 -371s-165 -370 -370 -370s-371 165 -371 370zM151 354c0 -142 114 -258 256 -258c140 0 253 116 253 258s-113 258 -253 258c-142 0 -256 -116 -256 -258z" />
    <glyph glyph-name="H18533" unicode="&#x25cf;" horiz-adv-x="813" 
d="M36 354c0 205 165 371 370 371s371 -166 371 -371s-166 -370 -371 -370s-370 165 -370 370z" />
    <glyph glyph-name="uni262E" unicode="&#x262e;" horiz-adv-x="815" 
d="M776 354c0 -204 -165 -370 -369 -370s-368 166 -368 370c0 205 164 371 368 371s369 -166 369 -371zM663 354c0 126 -87 230 -202 256v-194l181 -157c13 29 21 61 21 95zM150 354c0 -33 7 -65 19 -93l180 155v192c-114 -26 -199 -129 -199 -254zM461 99
c47 10 88 33 122 65l-122 110v-175zM228 166c33 -33 74 -56 121 -67v175z" />
    <glyph glyph-name="uni2713" unicode="&#x2713;" horiz-adv-x="942" 
d="M926 645l-617 -661l-293 324l83 78l214 -233l531 573z" />
    <glyph glyph-name="uni2715" unicode="&#x2715;" horiz-adv-x="755" 
d="M656 -5l-280 279l-277 -279l-80 81l277 279l-277 277l81 80l276 -276l274 276l80 -80l-274 -277l280 -279z" />
    <glyph glyph-name="uni2780" unicode="&#x2780;" horiz-adv-x="822" 
d="M127 354c0 -163 124 -291 283 -291s283 128 283 291c0 164 -124 292 -283 292s-283 -128 -283 -292zM42 354c0 204 164 371 368 371s370 -167 370 -371c0 -203 -166 -370 -370 -370s-368 167 -368 370zM480 173h-103v223h-91v66c63 0 96 42 103 78h91v-367z" />
    <glyph glyph-name="uni2781" unicode="&#x2781;" horiz-adv-x="822" 
d="M127 354c0 -163 124 -291 283 -291s283 128 283 291c0 164 -124 292 -283 292s-283 -128 -283 -292zM42 354c0 204 164 371 368 371s370 -167 370 -371c0 -203 -166 -370 -370 -370s-368 167 -368 370zM358 406l-91 -1c-2 7 -4 18 -4 29c0 69 50 124 144 124
c90 0 142 -56 142 -122c0 -48 -29 -82 -79 -112l-70 -42c-7 -4 -12 -9 -12 -15h164v-85h-291v12c0 65 23 118 89 157l60 35c25 15 38 32 38 51c0 18 -14 39 -42 39c-31 0 -51 -19 -51 -52c0 -5 1 -12 3 -18z" />
    <glyph glyph-name="uni2782" unicode="&#x2782;" horiz-adv-x="822" 
d="M127 354c0 -163 124 -291 283 -291s283 128 283 291c0 164 -124 292 -283 292s-283 -128 -283 -292zM42 354c0 204 164 371 368 371s370 -167 370 -371c0 -203 -166 -370 -370 -370s-368 167 -368 370zM253 275l91 21c3 -30 27 -53 61 -53c33 0 54 19 54 44
c0 32 -26 45 -53 45c-13 0 -25 -3 -32 -6l-33 68l87 59h-161v83h284v-82l-90 -61c59 -8 101 -45 101 -108c0 -67 -60 -125 -157 -125c-90 0 -144 56 -152 115z" />
    <glyph glyph-name="uni2783" unicode="&#x2783;" horiz-adv-x="822" 
d="M127 354c0 -163 124 -291 283 -291s283 128 283 291c0 164 -124 292 -283 292s-283 -128 -283 -292zM42 354c0 204 164 371 368 371s370 -167 370 -371c0 -203 -166 -370 -370 -370s-368 167 -368 370zM231 249v99l169 198h109v-218h61v-79h-61v-71h-100v71h-178z
M409 328v114l-97 -114h97z" />
    <glyph glyph-name="uni2784" unicode="&#x2784;" horiz-adv-x="822" 
d="M127 354c0 -163 124 -291 283 -291s283 128 283 291c0 164 -124 292 -283 292s-283 -128 -283 -292zM42 354c0 204 164 371 368 371s370 -167 370 -371c0 -203 -166 -370 -370 -370s-368 167 -368 370zM251 269l89 23c4 -31 30 -50 61 -50s53 18 53 48
c0 35 -23 51 -56 51c-21 0 -40 -9 -52 -22l-83 25l46 189h222v-83h-162l-15 -63c17 15 45 23 71 23c78 0 129 -45 129 -119c0 -72 -55 -132 -153 -132c-81 0 -141 50 -150 110z" />
    <glyph glyph-name="uni2785" unicode="&#x2785;" horiz-adv-x="822" 
d="M127 354c0 -163 124 -291 283 -291s283 128 283 291c0 164 -124 292 -283 292s-283 -128 -283 -292zM42 354c0 204 164 371 368 371s370 -167 370 -371c0 -203 -166 -370 -370 -370s-368 167 -368 370zM542 531l-18 -77c-19 7 -41 12 -65 12c-52 0 -102 -24 -117 -82
c19 20 51 32 85 32c73 0 130 -41 130 -119s-66 -133 -157 -133c-87 0 -160 61 -160 169c0 134 93 214 213 214c31 0 62 -5 89 -16zM346 294c0 -29 26 -49 54 -49c29 0 54 20 54 49c0 31 -25 50 -54 50c-28 0 -54 -19 -54 -50z" />
    <glyph glyph-name="uni2786" unicode="&#x2786;" horiz-adv-x="822" 
d="M127 354c0 -163 124 -291 283 -291s283 128 283 291c0 164 -124 292 -283 292s-283 -128 -283 -292zM42 354c0 204 164 371 368 371s370 -167 370 -371c0 -203 -166 -370 -370 -370s-368 167 -368 370zM562 531v-85c-34 -27 -126 -110 -142 -283h-107
c13 183 128 284 128 284h-186v84h307z" />
    <glyph glyph-name="uni2787" unicode="&#x2787;" horiz-adv-x="822" 
d="M127 354c0 -163 124 -291 283 -291s283 128 283 291c0 164 -124 292 -283 292s-283 -128 -283 -292zM42 354c0 204 164 371 368 371s370 -167 370 -371c0 -203 -166 -370 -370 -370s-368 167 -368 370zM411 394c29 0 45 18 45 39c0 17 -15 36 -45 36
c-31 0 -46 -19 -46 -36c0 -21 16 -39 46 -39zM411 244c38 0 55 21 55 43c0 20 -18 40 -55 40c-38 0 -55 -20 -55 -40c0 -22 16 -43 55 -43zM411 165c-99 0 -156 45 -156 110c0 40 30 74 73 87c-40 13 -62 47 -62 82c0 59 53 104 145 104c91 0 144 -45 144 -104
c0 -35 -22 -69 -62 -82c41 -12 74 -46 74 -85c0 -66 -56 -112 -156 -112z" />
    <glyph glyph-name="uni2788" unicode="&#x2788;" horiz-adv-x="822" 
d="M127 354c0 -163 124 -291 283 -291s283 128 283 291c0 164 -124 292 -283 292s-283 -128 -283 -292zM42 354c0 204 164 371 368 371s370 -167 370 -371c0 -203 -166 -370 -370 -370s-368 167 -368 370zM278 180l17 78c18 -6 40 -12 63 -12c54 0 106 20 119 83
c-19 -21 -53 -33 -86 -33c-69 0 -132 42 -132 119c0 78 62 133 157 133c87 0 158 -62 158 -170c0 -138 -89 -214 -205 -214c-31 0 -63 5 -91 16zM467 418c0 29 -25 49 -54 49c-30 0 -54 -20 -54 -49c0 -31 24 -51 54 -51c29 0 54 20 54 51z" />
    <glyph glyph-name="uniE000" unicode="&#xe000;" horiz-adv-x="745" 
d="M222 -15l-223 257h168v467h565v-115h-450v-352h165z" />
    <glyph glyph-name="uni21B5" unicode="&#xe001;" horiz-adv-x="1110" 
d="M251 104l-215 250h153c1 204 166 371 370 371c63 0 122 -16 174 -43l-53 -102c-36 19 -77 30 -120 30c-142 0 -256 -115 -256 -256h161zM926 354c0 -205 -165 -370 -370 -370c-62 0 -121 16 -173 43l52 102c37 -19 77 -31 121 -31c141 0 254 115 254 256h-159l214 251
l215 -251h-154z" />
    <glyph glyph-name="uniE002" unicode="&#xe002;" horiz-adv-x="956" 
d="M506 354l214 251l215 -251h-151c0 -205 -165 -370 -370 -370c-204 0 -370 165 -370 370s166 371 370 371c57 0 110 -13 158 -35l-46 -106c-34 17 -71 26 -111 26c-142 0 -256 -115 -256 -256s114 -257 256 -257c140 0 253 116 253 257h-162z" />
    <glyph glyph-name="uniFB00" unicode="&#xfb00;" horiz-adv-x="680" 
d="M553 546v-54h111v-114h-111v-378h-133v378h-190v-378h-134v378h-82v114h82v56c0 111 70 183 179 183c28 0 55 -5 66 -10v-112c-7 2 -20 5 -42 5c-29 0 -69 -13 -69 -68v-54h190v56c0 111 70 183 179 183c28 0 55 -5 66 -10v-112c-7 2 -20 5 -42 5c-29 0 -69 -13 -70 -68z
" />
    <glyph glyph-name="fi" unicode="&#xfb01;" horiz-adv-x="631" 
d="M427 378h-197v-378h-134v378h-82v114h82v56c0 111 70 183 179 183c28 0 55 -5 66 -10v-112c-7 2 -20 5 -42 5c-29 0 -69 -13 -69 -68v-54h329v-492h-132v378zM411 654c0 46 37 83 82 83s82 -37 82 -83c0 -45 -37 -81 -82 -81s-82 36 -82 81z" />
    <glyph glyph-name="fl" unicode="&#xfb02;" horiz-adv-x="630" 
d="M299 614c-29 0 -69 -13 -69 -68v-54h196v232h133v-724h-133v378h-196v-378h-134v378h-82v114h82v56c0 111 70 183 179 183c28 0 55 -5 66 -10v-112c-7 2 -20 5 -42 5z" />
    <glyph glyph-name="uniFB03" unicode="&#xfb03;" horiz-adv-x="957" 
d="M737 654c0 46 36 83 81 83c46 0 83 -37 83 -83c0 -45 -37 -81 -83 -81c-45 0 -81 36 -81 81zM420 492v58c0 110 70 181 178 181c28 0 55 -5 66 -10v-112c-7 2 -20 5 -42 5c-29 0 -69 -13 -69 -68v-54h332v-492h-133v378h-199v-378h-133v378h-190v-378h-134v378h-82v114
h82v56c0 111 70 183 179 183c28 0 55 -5 66 -10v-112c-7 2 -20 5 -42 5c-29 0 -69 -13 -69 -68v-54h190z" />
    <glyph glyph-name="uniFB04" unicode="&#xfb04;" horiz-adv-x="957" 
d="M420 548c0 112 70 183 178 183c28 0 55 -5 66 -10v-112c-7 2 -20 5 -42 5c-29 0 -69 -13 -69 -68v-54h200v232h133v-724h-133v378h-200v-378h-133v378h-190v-378h-134v378h-82v114h82v56c0 111 70 183 179 183c28 0 55 -5 66 -10v-112c-7 2 -20 5 -42 5
c-29 0 -69 -13 -69 -68v-54h190v56z" />
    <glyph glyph-name="uniFEFF" unicode="&#xfeff;" horiz-adv-x="0" 
 />
    <glyph glyph-name="zero.numr" horiz-adv-x="434" 
d="M155 465c0 -50 8 -107 62 -107c55 0 63 57 63 107s-8 108 -63 108c-54 0 -62 -57 -62 -108zM51 465c0 46 8 94 36 131c26 35 67 61 130 61s105 -26 131 -61c27 -37 35 -85 35 -131s-8 -93 -35 -130c-26 -36 -68 -61 -131 -61s-104 25 -130 61c-28 37 -36 84 -36 130z" />
    <glyph glyph-name="one.numr" horiz-adv-x="313" 
d="M232 282h-103v223h-91v66c63 0 96 42 103 78h91v-367z" />
    <glyph glyph-name="two.numr" horiz-adv-x="394" 
d="M149 505l-91 -1c-2 7 -4 18 -4 29c0 69 50 124 144 124c90 0 142 -56 142 -122c0 -48 -29 -82 -79 -112l-70 -42c-7 -4 -12 -9 -12 -15h164v-85h-291v12c0 65 23 118 89 157l60 35c25 15 38 32 38 51c0 18 -14 39 -42 39c-31 0 -51 -19 -51 -52c0 -5 1 -12 3 -18z" />
    <glyph glyph-name="three.numr" horiz-adv-x="411" 
d="M51 388l91 21c3 -30 27 -53 61 -53c33 0 54 19 54 44c0 32 -26 45 -53 45c-13 0 -25 -3 -32 -6l-33 68l87 59h-161v83h284v-82l-90 -61c59 -8 101 -45 101 -108c0 -67 -60 -125 -157 -125c-90 0 -144 56 -152 115z" />
    <glyph glyph-name="four.numr" horiz-adv-x="441" 
d="M51 352v99l169 198h109v-218h61v-79h-61v-71h-100v71h-178zM229 431v114l-97 -114h97z" />
    <glyph glyph-name="five.numr" horiz-adv-x="395" 
d="M51 385l89 23c4 -31 30 -50 61 -50s53 18 53 48c0 35 -23 51 -56 51c-21 0 -40 -9 -52 -22l-83 25l46 189h222v-83h-162l-15 -63c17 15 45 23 71 23c78 0 129 -45 129 -119c0 -72 -55 -132 -153 -132c-81 0 -141 50 -150 110z" />
    <glyph glyph-name="six.numr" horiz-adv-x="419" 
d="M353 639l-18 -77c-19 7 -41 12 -65 12c-52 0 -102 -24 -117 -82c19 20 51 32 85 32c73 0 130 -41 130 -119s-66 -133 -157 -133c-87 0 -160 61 -160 169c0 134 93 214 213 214c31 0 62 -5 89 -16zM157 402c0 -29 26 -49 54 -49c29 0 54 20 54 49c0 31 -25 50 -54 50
c-28 0 -54 -19 -54 -50z" />
    <glyph glyph-name="seven.numr" horiz-adv-x="409" 
d="M358 649v-85c-34 -27 -126 -110 -142 -283h-107c13 183 128 284 128 284h-186v84h307z" />
    <glyph glyph-name="eight.numr" horiz-adv-x="420" 
d="M210 502c29 0 45 18 45 39c0 17 -15 36 -45 36c-31 0 -46 -19 -46 -36c0 -21 16 -39 46 -39zM210 352c38 0 55 21 55 43c0 20 -18 40 -55 40c-38 0 -55 -20 -55 -40c0 -22 16 -43 55 -43zM210 273c-99 0 -156 45 -156 110c0 40 30 74 73 87c-40 13 -62 47 -62 82
c0 59 53 104 145 104c91 0 144 -45 144 -104c0 -35 -22 -69 -62 -82c41 -12 74 -46 74 -85c0 -66 -56 -112 -156 -112z" />
    <glyph glyph-name="nine.numr" horiz-adv-x="418" 
d="M70 288l17 78c18 -6 40 -12 63 -12c54 0 106 20 119 83c-19 -21 -53 -33 -86 -33c-69 0 -132 42 -132 119c0 78 62 133 157 133c87 0 158 -62 158 -170c0 -138 -89 -214 -205 -214c-31 0 -63 5 -91 16zM259 526c0 29 -25 49 -54 49c-30 0 -54 -20 -54 -49
c0 -31 24 -51 54 -51c29 0 54 20 54 51z" />
    <glyph glyph-name="zero.dnom" horiz-adv-x="434" 
d="M155 183c0 -50 8 -107 62 -107c55 0 63 57 63 107s-8 108 -63 108c-54 0 -62 -57 -62 -108zM51 183c0 46 8 94 36 131c26 35 67 61 130 61s105 -26 131 -61c27 -37 35 -85 35 -131s-8 -93 -35 -130c-26 -36 -68 -61 -131 -61s-104 25 -130 61c-28 37 -36 84 -36 130z" />
    <glyph glyph-name="one.dnom" horiz-adv-x="307" 
d="M232 0h-103v223h-91v66c63 0 96 42 103 78h91v-367z" />
    <glyph glyph-name="two.dnom" horiz-adv-x="394" 
d="M149 224l-91 -1c-2 7 -4 18 -4 29c0 69 50 124 144 124c90 0 142 -56 142 -122c0 -48 -29 -82 -79 -112l-70 -42c-7 -4 -12 -9 -12 -15h164v-85h-291v12c0 65 23 118 89 157l60 35c25 15 38 32 38 51c0 18 -14 39 -42 39c-31 0 -51 -19 -51 -52c0 -5 1 -12 3 -18z" />
    <glyph glyph-name="three.dnom" horiz-adv-x="411" 
d="M51 107l91 21c3 -30 27 -53 61 -53c33 0 54 19 54 44c0 32 -26 45 -53 45c-13 0 -25 -3 -32 -6l-33 68l87 59h-161v83h284v-82l-90 -61c59 -8 101 -45 101 -108c0 -67 -60 -125 -157 -125c-90 0 -144 56 -152 115z" />
    <glyph glyph-name="four.dnom" horiz-adv-x="441" 
d="M51 71v99l169 198h109v-218h61v-79h-61v-71h-100v71h-178zM229 150v114l-97 -114h97z" />
    <glyph glyph-name="five.dnom" horiz-adv-x="405" 
d="M51 103l89 23c4 -31 30 -50 61 -50s53 18 53 48c0 35 -23 51 -56 51c-21 0 -40 -9 -52 -22l-83 25l46 189h222v-83h-162l-15 -63c17 15 45 23 71 23c78 0 129 -45 129 -119c0 -72 -55 -132 -153 -132c-81 0 -141 50 -150 110z" />
    <glyph glyph-name="six.dnom" horiz-adv-x="419" 
d="M353 359l-18 -77c-19 7 -41 12 -65 12c-52 0 -102 -24 -117 -82c19 20 51 32 85 32c73 0 130 -41 130 -119s-66 -133 -157 -133c-87 0 -160 61 -160 169c0 134 93 214 213 214c31 0 62 -5 89 -16zM157 122c0 -29 26 -49 54 -49c29 0 54 20 54 49c0 31 -25 50 -54 50
c-28 0 -54 -19 -54 -50z" />
    <glyph glyph-name="seven.dnom" horiz-adv-x="409" 
d="M358 368v-85c-34 -27 -126 -110 -142 -283h-107c13 183 128 284 128 284h-186v84h307z" />
    <glyph glyph-name="eight.dnom" horiz-adv-x="420" 
d="M210 221c29 0 45 18 45 39c0 17 -15 36 -45 36c-31 0 -46 -19 -46 -36c0 -21 16 -39 46 -39zM210 71c38 0 55 21 55 43c0 20 -18 40 -55 40c-38 0 -55 -20 -55 -40c0 -22 16 -43 55 -43zM210 -8c-99 0 -156 45 -156 110c0 40 30 74 73 87c-40 13 -62 47 -62 82
c0 59 53 104 145 104c91 0 144 -45 144 -104c0 -35 -22 -69 -62 -82c41 -12 74 -46 74 -85c0 -66 -56 -112 -156 -112z" />
    <glyph glyph-name="nine.dnom" horiz-adv-x="418" 
d="M70 8l17 78c18 -6 40 -12 63 -12c54 0 106 20 119 83c-19 -21 -53 -33 -86 -33c-69 0 -132 42 -132 119c0 78 62 133 157 133c87 0 158 -62 158 -170c0 -138 -89 -214 -205 -214c-31 0 -63 5 -91 16zM259 246c0 29 -25 49 -54 49c-30 0 -54 -20 -54 -49
c0 -31 24 -51 54 -51c29 0 54 20 54 51z" />
    <glyph glyph-name="space.frac" horiz-adv-x="49" 
 />
    <glyph glyph-name="a.ordn" horiz-adv-x="423" 
d="M55 397c0 59 39 94 103 104l83 14c19 3 25 12 25 24c0 21 -18 39 -53 39c-39 0 -60 -25 -62 -52l-89 18c4 51 52 115 151 115c111 0 152 -62 152 -133v-170c0 -24 3 -44 5 -54h-93c-1 5 -3 18 -3 40c-19 -29 -51 -50 -100 -50c-75 0 -119 51 -119 105zM198 366
c34 0 68 17 68 73v16l-70 -11c-23 -3 -40 -15 -40 -41c0 -18 13 -37 42 -37z" />
    <glyph glyph-name="b.ordn" horiz-adv-x="503" 
d="M181 302h-98v507h100v-195c15 23 53 44 102 44c101 0 161 -78 161 -182c0 -105 -68 -182 -165 -182c-47 0 -83 21 -100 48v-40zM344 476c0 60 -37 90 -82 90c-42 0 -80 -30 -80 -90c0 -59 38 -91 80 -91c44 0 82 31 82 91z" />
    <glyph glyph-name="c.ordn" horiz-adv-x="461" 
d="M242 565c-45 0 -82 -32 -82 -90s38 -90 84 -90c43 0 66 28 74 54l90 -28c-16 -60 -72 -119 -164 -119c-104 0 -186 76 -186 183c0 108 81 184 182 184c96 0 150 -59 166 -119l-92 -29c-8 28 -29 54 -72 54z" />
    <glyph glyph-name="d.ordn" horiz-adv-x="505" 
d="M161 476c0 -59 37 -91 81 -91c43 0 80 32 80 91s-37 90 -80 90c-44 0 -81 -31 -81 -90zM421 809v-445c0 -17 1 -38 3 -62h-98c-1 8 -2 27 -2 38c-14 -26 -50 -46 -95 -46c-98 0 -171 76 -171 182c0 103 70 182 168 182c59 0 86 -24 95 -39v190h100z" />
    <glyph glyph-name="e.ordn" horiz-adv-x="453" 
d="M156 516h144c-1 30 -20 62 -72 62c-46 0 -70 -34 -72 -62zM308 426l86 -24c-18 -60 -73 -110 -160 -110c-95 0 -180 67 -180 185c0 111 83 182 173 182c107 0 172 -67 172 -179c0 -14 -1 -29 -2 -31h-243c3 -41 38 -71 82 -71c40 0 62 20 72 48z" />
    <glyph glyph-name="f.ordn" horiz-adv-x="343" 
d="M288 563h-76v-261h-103v261h-56v86h56v33c0 79 49 133 131 133c19 0 40 -3 50 -7v-85c-7 2 -17 4 -32 4c-20 0 -46 -10 -46 -45v-33h76v-86z" />
    <glyph glyph-name="g.ordn" horiz-adv-x="467" 
d="M58 282l90 26c8 -35 36 -60 78 -60c55 0 88 28 88 92v18c-14 -20 -45 -41 -94 -41c-93 0 -162 72 -162 168c0 92 67 170 162 170c55 0 86 -25 96 -45v38h98v-305c0 -98 -54 -184 -184 -184c-98 0 -162 60 -172 123zM238 406c45 0 77 30 77 79c0 50 -36 81 -77 81
c-42 0 -77 -31 -77 -81c0 -49 32 -79 77 -79z" />
    <glyph glyph-name="h.ordn" horiz-adv-x="487" 
d="M185 506v-204h-102v507h102v-185c21 24 59 34 90 34c90 0 131 -62 131 -138v-218h-102v201c0 36 -19 62 -59 62c-36 0 -58 -25 -60 -59z" />
    <glyph glyph-name="i.ordn" horiz-adv-x="285" 
d="M194 302h-102v346h102v-346zM82 757c0 34 27 61 60 61c34 0 62 -27 62 -61c0 -33 -28 -60 -62 -60c-33 0 -60 27 -60 60z" />
    <glyph glyph-name="j.ordn" horiz-adv-x="327" 
d="M138 286v362h102v-373c0 -69 -44 -116 -113 -116c-31 0 -52 7 -57 9v85c7 -2 20 -4 31 -4c26 0 37 14 37 37zM128 758c0 33 27 61 60 61c34 0 62 -28 62 -61c0 -34 -28 -61 -62 -61c-33 0 -60 27 -60 61z" />
    <glyph glyph-name="k.ordn" horiz-adv-x="463" 
d="M428 648l-137 -145l139 -201h-124l-86 125l-35 -37v-88h-102v507h102v-281l110 120h133z" />
    <glyph glyph-name="l.ordn" horiz-adv-x="267" 
d="M185 302h-102v507h102v-507z" />
    <glyph glyph-name="m.ordn" horiz-adv-x="701" 
d="M185 302h-102v346h98v-40c17 32 62 51 99 51c49 0 85 -20 104 -56c26 41 61 56 107 56c65 0 128 -39 128 -132v-225h-99v202c0 35 -17 61 -57 61c-39 0 -60 -29 -60 -62v-201h-101v202c0 35 -18 61 -58 61c-38 0 -59 -29 -59 -62v-201z" />
    <glyph glyph-name="n.ordn" horiz-adv-x="487" 
d="M185 501v-199h-102v346h99v-40c19 34 62 50 98 50c86 0 126 -62 126 -138v-218h-102v201c0 36 -19 62 -59 62c-38 0 -60 -27 -60 -64z" />
    <glyph glyph-name="o.ordn" horiz-adv-x="482" 
d="M242 385c42 0 81 30 81 91c0 60 -39 90 -81 90s-81 -30 -81 -90c0 -61 39 -91 81 -91zM242 659c103 0 183 -76 183 -183c0 -108 -80 -184 -183 -184c-104 0 -184 76 -184 184c0 107 80 183 184 183z" />
    <glyph glyph-name="p.ordn" horiz-adv-x="503" 
d="M185 169h-102v479h98v-37c16 24 53 46 104 46c101 0 161 -77 161 -181c0 -105 -68 -182 -165 -182c-46 0 -80 16 -96 37v-162zM345 476c0 58 -37 89 -80 89c-44 0 -82 -31 -82 -89c0 -59 38 -91 82 -91c43 0 80 32 80 91z" />
    <glyph glyph-name="q.ordn" horiz-adv-x="500" 
d="M422 169h-100v163c-16 -23 -49 -38 -93 -38c-99 0 -171 77 -171 182c0 103 68 181 168 181c61 0 90 -28 98 -44v35h98v-479zM161 476c0 -59 38 -91 81 -91s81 32 81 91s-38 89 -81 89c-44 0 -81 -30 -81 -89z" />
    <glyph glyph-name="r.ordn" horiz-adv-x="305" 
d="M296 649v-101c-8 2 -16 2 -23 2c-48 0 -92 -17 -92 -95v-153h-102v346h99v-47c16 31 52 51 94 51c9 0 16 -1 24 -3z" />
    <glyph glyph-name="s.ordn" horiz-adv-x="399" 
d="M59 400l87 16c1 -24 19 -48 57 -48c29 0 42 14 42 31c0 14 -9 25 -35 30l-41 9c-72 17 -102 58 -102 106c0 63 56 115 132 115c100 0 134 -63 138 -102l-85 -16c-3 21 -17 43 -52 43c-21 0 -40 -13 -40 -31c0 -15 12 -24 29 -28l47 -10c71 -14 106 -57 106 -107
c0 -58 -45 -116 -138 -116c-107 0 -142 69 -145 108z" />
    <glyph glyph-name="t.ordn" horiz-adv-x="327" 
d="M202 751v-103h68v-89h-68v-135c0 -29 15 -37 39 -37c11 0 22 1 29 2v-84c-4 -2 -24 -9 -55 -9c-71 0 -114 42 -114 110v153h-62v89h18c36 0 54 25 54 56v47h91z" />
    <glyph glyph-name="u.ordn" horiz-adv-x="462" 
d="M287 302c-1 7 -3 23 -3 36c-19 -31 -58 -44 -94 -44c-84 0 -132 61 -132 135v219h102v-197c0 -36 19 -64 58 -64c38 0 61 26 61 63v198h102v-284c0 -22 1 -41 3 -62h-97z" />
    <glyph glyph-name="v.ordn" horiz-adv-x="421" 
d="M399 648l-133 -346h-102l-142 346h111l82 -220l77 220h107z" />
    <glyph glyph-name="w.ordn" horiz-adv-x="628" 
d="M263 648h108l70 -210l59 210h101l-108 -346h-101l-78 228l-76 -228h-103l-109 346h107l59 -210z" />
    <glyph glyph-name="x.ordn" horiz-adv-x="424" 
d="M30 302l121 173l-122 173h121c15 -24 47 -71 63 -95l64 95h114l-119 -169c37 -53 86 -124 123 -177h-119l-67 100c-17 -25 -49 -75 -66 -100h-113z" />
    <glyph glyph-name="y.ordn" horiz-adv-x="433" 
d="M197 168h-107l79 179l-146 301h114l88 -191l79 191h108z" />
    <glyph glyph-name="z.ordn" horiz-adv-x="406" 
d="M348 302h-290v90l156 169h-152v87h283v-84l-162 -174h165v-88z" />
    <glyph glyph-name="space.tf" 
 />
    <glyph glyph-name="numbersign.tf" 
d="M515 649l-34 -157h88v-98h-109l-29 -136h88v-97h-109l-34 -161h-106l34 161h-106l-34 -161h-106l34 161h-83v97h104l29 136h-83v98h104l34 157h106l-34 -157h106l34 157h106zM248 394l-29 -136h106l29 136h-106z" />
    <glyph glyph-name="dollar.tf" 
d="M352 -112h-101v106c-137 19 -203 119 -212 203l123 29c6 -62 47 -119 138 -119c65 0 102 30 102 74c0 33 -25 59 -74 70l-91 20c-107 23 -173 91 -173 186c0 104 81 181 187 198v106h101v-109c113 -21 163 -100 177 -166l-122 -34c-6 34 -32 91 -113 91
c-63 0 -97 -36 -97 -77c0 -30 21 -56 68 -66l90 -21c124 -27 180 -101 180 -190c0 -91 -65 -175 -183 -194v-107z" />
    <glyph glyph-name="percent.tf" 
d="M525 537v-98l-482 -328v97zM109 518c0 -34 23 -57 54 -57s54 24 54 57c0 34 -23 57 -54 57s-54 -23 -54 -57zM22 518c0 78 64 139 141 139s141 -61 141 -139c0 -79 -64 -138 -142 -138c-77 0 -140 60 -140 138zM360 131c0 -34 23 -57 54 -57s54 24 54 57
c0 34 -23 57 -54 57s-54 -23 -54 -57zM273 131c0 78 64 139 141 139s141 -61 141 -139c0 -79 -64 -138 -142 -138c-77 0 -140 60 -140 138z" />
    <glyph glyph-name="plus.tf" 
d="M44 349h189v195h112v-195h190v-109h-190v-196h-112v196h-189v109z" />
    <glyph glyph-name="comma.tf" 
d="M182 90c0 53 44 94 102 94c70 0 111 -56 111 -129c0 -165 -114 -234 -197 -244v71c50 12 104 60 106 121c-4 -3 -16 -6 -29 -6c-55 0 -93 39 -93 93z" />
    <glyph glyph-name="period.tf" 
d="M187 94c0 56 46 102 102 102c57 0 103 -46 103 -102s-46 -102 -103 -102c-56 0 -102 46 -102 102z" />
    <glyph glyph-name="zero.tf" 
d="M169 324c0 -99 7 -218 120 -218s120 119 120 218s-7 218 -120 218s-120 -119 -120 -218zM30 324c0 83 10 170 52 234c43 65 115 106 207 106s163 -40 206 -105s53 -152 53 -235s-10 -171 -53 -236c-43 -64 -114 -104 -206 -104s-163 40 -206 104c-43 65 -53 153 -53 236z
" />
    <glyph glyph-name="one.tf" 
d="M85 117h163v317h-150v93c95 1 155 54 167 122h119v-532h151v-117h-450v117z" />
    <glyph glyph-name="two.tf" 
d="M190 398l-131 4c-2 9 -5 29 -5 45c0 114 86 217 237 217c145 0 234 -96 234 -209c0 -84 -46 -152 -126 -201l-125 -76c-25 -16 -46 -34 -56 -59h311v-119h-480c1 114 37 207 153 277l107 64c55 33 77 67 77 112c0 47 -33 89 -98 89c-69 0 -103 -47 -103 -108
c0 -12 2 -25 5 -36z" />
    <glyph glyph-name="three.tf" 
d="M223 288l-61 96l170 146h-284v119h459v-111l-168 -140c98 -4 188 -79 188 -198c0 -112 -92 -215 -249 -215c-151 0 -243 98 -251 207l133 26c3 -66 50 -114 118 -114c69 0 110 44 110 98c0 61 -44 96 -106 96c-28 0 -45 -5 -59 -10z" />
    <glyph glyph-name="four.tf" 
d="M32 139v144l270 366h170v-392h93v-118h-93v-139h-137v139h-303zM335 257v248l-182 -248h182z" />
    <glyph glyph-name="five.tf" 
d="M46 182l129 29c3 -60 49 -109 118 -109c62 0 112 41 112 106c0 74 -55 109 -115 109c-44 0 -79 -20 -100 -44c-13 5 -112 39 -126 43l77 333h366v-119h-272l-32 -143c28 26 74 40 117 40c130 0 222 -78 222 -217c0 -121 -93 -226 -249 -226c-141 0 -239 96 -247 198z" />
    <glyph glyph-name="six.tf" 
d="M534 634l-38 -112c-29 13 -68 22 -110 22c-110 0 -199 -66 -213 -187c23 38 77 74 156 74c127 0 217 -88 217 -218c0 -133 -108 -228 -248 -228c-170 0 -261 139 -261 299c0 233 148 380 360 380c60 0 110 -14 137 -30zM186 210c0 -66 52 -109 111 -109
c60 0 111 42 111 109s-51 108 -111 108s-111 -41 -111 -108z" />
    <glyph glyph-name="seven.tf" 
d="M543 649v-115c-49 -42 -241 -207 -270 -534h-143c27 349 254 530 254 530h-357v119h516z" />
    <glyph glyph-name="eight.tf" 
d="M289 383c61 1 96 39 96 85c0 43 -35 82 -96 82c-60 0 -95 -39 -95 -82c0 -46 35 -84 95 -85zM289 99c72 0 110 44 110 90c0 47 -37 92 -110 92s-109 -45 -109 -92c0 -46 38 -90 109 -90zM289 -15c-148 0 -245 78 -245 190c0 70 46 132 115 158c-65 24 -102 87 -102 145
c0 109 97 186 232 186s232 -77 232 -186c0 -57 -36 -121 -101 -145c68 -25 114 -88 114 -158c0 -112 -97 -190 -245 -190z" />
    <glyph glyph-name="nine.tf" 
d="M43 21l34 111c23 -13 71 -28 115 -28c118 0 198 64 206 183c-26 -41 -81 -69 -148 -69c-118 0 -221 84 -221 218c0 133 105 228 247 228c137 0 256 -102 256 -307c0 -231 -116 -372 -338 -372c-55 0 -117 15 -151 36zM380 440c0 64 -51 106 -109 106s-108 -42 -108 -106
c0 -65 49 -106 108 -106s109 42 109 106z" />
    <glyph glyph-name="colon.tf" 
d="M190 83c0 53 44 97 98 97s98 -44 98 -97c0 -54 -44 -97 -98 -97s-98 43 -98 97zM190 410c0 53 44 97 98 97s98 -44 98 -97c0 -54 -44 -97 -98 -97s-98 43 -98 97z" />
    <glyph glyph-name="semicolon.tf" 
d="M191 86c0 50 40 88 94 88c65 0 104 -52 104 -120c0 -153 -107 -218 -184 -227v67c47 10 97 55 99 112c-4 -3 -15 -6 -27 -6c-51 0 -86 36 -86 86zM191 407c0 53 44 97 98 97s98 -44 98 -97c0 -54 -44 -97 -98 -97s-98 43 -98 97z" />
    <glyph glyph-name="less.tf" 
d="M72 244v101l430 217v-123l-296 -143l296 -143v-125z" />
    <glyph glyph-name="equal.tf" 
d="M532 341h-485v107h485v-107zM532 142h-485v108h485v-108z" />
    <glyph glyph-name="greater.tf" 
d="M506 345v-100l-430 -217v123l296 143l-296 143v125z" />
    <glyph glyph-name="cent.tf" 
d="M353 0h-102v87c-110 24 -189 116 -189 235c0 121 79 213 189 236v91h102v-90c98 -16 155 -82 173 -149l-114 -37c-11 38 -41 77 -104 77c-65 0 -119 -46 -119 -128s55 -128 121 -128c64 0 97 42 107 76l112 -36c-19 -67 -78 -134 -176 -150v-84z" />
    <glyph glyph-name="sterling.tf" 
d="M62 375h61c-10 28 -18 58 -18 95c0 101 78 194 209 194c122 0 205 -67 207 -189l-120 -18c0 60 -30 95 -85 95c-49 0 -82 -32 -82 -85c0 -33 10 -62 22 -92h179v-102h-146c1 -7 1 -14 1 -21c0 -55 -23 -106 -73 -136h131c51 0 82 36 82 84l119 -10
c0 -110 -71 -190 -179 -190h-312v111c65 23 106 69 106 127c0 12 -2 24 -4 35h-98v102z" />
    <glyph glyph-name="currency.tf" 
d="M74 245c0 40 11 77 30 108l-72 73l80 80l74 -75c32 17 67 27 105 27c37 0 72 -9 103 -26l73 74l80 -80l-71 -71c20 -32 31 -70 31 -110s-11 -77 -30 -109l70 -71l-80 -80l-72 73c-31 -17 -67 -26 -104 -26c-39 0 -75 9 -107 27l-72 -74l-80 80l71 72
c-18 32 -29 68 -29 108zM186 245c0 -61 44 -105 105 -105s105 44 105 105s-44 105 -105 105s-105 -44 -105 -105z" />
    <glyph glyph-name="yen.tf" 
d="M522 135h-167v-135h-130v135h-161v94h161v70h-161v93h96l-147 257h151l129 -245l127 245h145l-146 -257h103v-93h-167v-70h167v-94z" />
    <glyph glyph-name="section.tf" horiz-adv-x="579" 
d="M499 253c0 -62 -37 -103 -77 -125c51 -36 77 -87 77 -142c0 -116 -103 -191 -211 -191c-130 0 -206 75 -211 186l124 21c0 -63 35 -95 88 -95c44 0 76 28 76 70c0 27 -17 48 -44 62l-101 53c-74 37 -140 82 -140 174c0 60 36 102 76 124c-50 37 -76 89 -76 143
c0 116 102 191 212 191c128 0 206 -78 210 -187l-126 -20c0 63 -34 94 -85 94c-47 0 -78 -29 -78 -70c0 -24 15 -48 44 -61l100 -52c75 -39 142 -84 142 -175zM334 294l-101 53c-19 -15 -32 -33 -32 -56c0 -27 10 -49 43 -66l101 -54c18 14 32 33 32 57c0 27 -11 49 -43 66z
" />
    <glyph glyph-name="logicalnot.tf" 
d="M520 136h-114v195h-375v110h489v-305z" />
    <glyph glyph-name="plusminus.tf" 
d="M55 421h178v123h112v-123h178v-108h-178v-123h-112v123h-178v108zM55 153h468v-109h-468v109z" />
    <glyph glyph-name="multiply.tf" 
d="M454 47l-166 168l-165 -167l-79 79l165 168l-165 168l80 79l164 -167l165 167l80 -78l-166 -169l166 -168z" />
    <glyph glyph-name="divide.tf" 
d="M208 479c0 42 35 77 78 77s78 -35 78 -77s-35 -78 -78 -78s-78 36 -78 78zM44 240v111h489v-111h-489zM208 112c0 43 35 78 78 78s78 -35 78 -78c0 -42 -35 -78 -78 -78s-78 36 -78 78z" />
    <glyph glyph-name="florin.tf" 
d="M160 27l71 352h-98v112h121l19 92c22 111 107 157 187 157c46 0 61 -4 89 -13v-115c-18 4 -38 7 -62 7c-27 0 -71 -9 -84 -75l-11 -53h117v-112h-140l-79 -392c-22 -110 -107 -157 -187 -157c-47 0 -65 5 -92 14v114c18 -4 40 -7 65 -7c27 0 71 10 84 76z" />
    <glyph glyph-name="uni2007.tf" 
 />
    <glyph glyph-name="uni2008.tf" 
 />
    <glyph glyph-name="perthousand.tf" 
d="M533 615v-98l-489 -351v97zM97 536c0 -30 21 -51 48 -51c28 0 48 21 48 51s-20 50 -48 50c-27 0 -48 -20 -48 -50zM21 536c0 68 57 123 124 123c68 0 125 -55 125 -123c0 -70 -57 -122 -125 -122s-124 54 -124 122zM131 113c0 68 57 123 125 123c34 0 65 -15 87 -37
c22 22 53 37 88 37c67 0 125 -55 125 -123c0 -70 -58 -122 -125 -122c-35 0 -66 13 -88 36c-22 -23 -53 -36 -87 -36c-69 0 -125 54 -125 122zM431 163c-28 0 -47 -20 -47 -50s19 -51 47 -51s47 21 47 51s-19 50 -47 50zM256 163c-28 0 -49 -20 -49 -50s21 -51 49 -51
s47 21 47 51s-19 50 -47 50z" />
    <glyph glyph-name="Euro.tf" 
d="M110 326c0 6 0 14 1 28h-66v94h85c48 136 175 216 314 216c57 0 88 -8 121 -21l-33 -113c-21 8 -49 14 -88 14c-67 0 -133 -29 -169 -96h234l-27 -94h-233c-2 -13 -2 -23 -2 -33c0 -14 1 -24 2 -31h218l-27 -94h-162c36 -60 99 -89 168 -89c38 0 67 6 88 14l31 -112
c-28 -13 -69 -24 -119 -24c-141 0 -266 76 -315 211h-86v94h67c-2 15 -2 31 -2 36z" />
    <glyph glyph-name="minus.tf" 
d="M526 241h-475v109h475v-109z" />
    <glyph glyph-name="approxequal.tf" 
d="M483 463l71 -59c-37 -64 -96 -100 -162 -100c-35 0 -72 10 -108 30l-48 26c-18 10 -37 15 -54 15c-32 -1 -63 -17 -86 -48l-73 59c38 65 96 101 162 101c35 0 71 -10 108 -30l47 -26c19 -10 38 -15 57 -16c33 0 63 16 86 48zM483 261l71 -58c-37 -65 -96 -100 -163 -100
c-35 0 -71 10 -107 30l-48 26c-18 10 -37 14 -55 14c-32 0 -62 -16 -85 -47l-73 59c37 64 95 100 160 101c36 0 72 -10 110 -30l47 -26c19 -10 38 -16 57 -16c33 0 63 15 86 47z" />
    <glyph glyph-name="notequal.tf" 
d="M531 142h-275l-63 -97h-120l63 97h-90v108h161l59 91h-220v107h290l60 92h120l-60 -92h75v-107h-145l-59 -91h204v-108z" />
    <glyph glyph-name="lessequal.tf" 
d="M74 153h430v-109h-430v109zM74 316v108l430 136v-110l-279 -78l279 -79v-112z" />
    <glyph glyph-name="greaterequal.tf" 
d="M74 153h430v-109h-430v109zM504 424v-108l-430 -135v110l279 78l-279 79v112z" />
    <glyph glyph-name="parenleft.case" horiz-adv-x="315" 
d="M43 354c0 213 88 358 194 466l78 -67c-100 -115 -161 -229 -161 -399c0 -171 61 -285 161 -400l-78 -66c-106 108 -194 252 -194 466z" />
    <glyph glyph-name="parenright.case" horiz-adv-x="315" 
d="M272 354c0 -214 -88 -358 -194 -466l-78 66c100 115 161 229 161 400c0 170 -61 284 -161 399l78 67c106 -108 194 -253 194 -466z" />
    <glyph glyph-name="hyphen.case" horiz-adv-x="380" 
d="M335 288h-290v118h290v-118z" />
    <glyph glyph-name="bracketleft.case" horiz-adv-x="317" 
d="M312 -109h-231v925h231v-101h-120v-721h120v-103z" />
    <glyph glyph-name="bracketright.case" horiz-adv-x="317" 
d="M236 -109h-231v103h119v721h-119v101h231v-925z" />
    <glyph glyph-name="braceleft.case" horiz-adv-x="375" 
d="M45 299v111c57 0 100 25 100 93v120c0 131 74 193 194 193h31v-101h-30c-49 0 -83 -23 -83 -89v-145c0 -64 -37 -110 -101 -126c64 -17 101 -63 101 -126v-146c0 -65 34 -89 83 -89h30v-101h-31c-120 0 -194 63 -194 193v120c0 68 -43 93 -100 93z" />
    <glyph glyph-name="braceright.case" horiz-adv-x="375" 
d="M330 410v-111c-57 0 -101 -25 -101 -93v-120c0 -130 -74 -193 -193 -193h-31v101h29c50 0 84 24 84 89v146c0 63 37 109 100 126c-64 16 -100 62 -100 126v145c0 66 -34 89 -84 89h-29v101h31c119 0 193 -62 193 -193v-120c0 -68 44 -93 101 -93z" />
    <glyph glyph-name="exclamdown.case" horiz-adv-x="316" 
d="M207 493l31 -493h-160l32 493h97zM79 638c0 43 35 79 79 79c43 0 79 -36 79 -79c0 -44 -36 -80 -79 -80c-44 0 -79 36 -79 80z" />
    <glyph glyph-name="guillemotleft.case" horiz-adv-x="524" 
d="M290 151h-126l-137 194l138 197h125l-136 -198zM506 151h-126l-136 194l137 197h126l-137 -198z" />
    <glyph glyph-name="uni00AD.case" horiz-adv-x="380" 
d="M335 295h-290v118h290v-118z" />
    <glyph glyph-name="guillemotright.case" horiz-adv-x="524" 
d="M360 151h-126l136 193l-136 198h125l138 -197zM144 151h-126l135 193l-136 198h125l138 -197z" />
    <glyph glyph-name="questiondown.case" horiz-adv-x="517" 
d="M218 494h108c2 -13 3 -26 3 -41c0 -54 -19 -104 -77 -146l-48 -35c-30 -22 -42 -49 -42 -79c0 -46 32 -89 99 -89c70 0 103 52 103 106c0 14 -2 30 -6 41l128 -12c3 -14 5 -29 5 -44c0 -108 -81 -210 -230 -210c-155 0 -235 99 -235 199c0 79 39 137 97 178l41 29
c34 24 54 56 54 97v6zM191 638c0 44 36 79 80 79s79 -35 79 -79s-35 -79 -79 -79s-80 35 -80 79z" />
    <glyph glyph-name="endash.case" horiz-adv-x="632" 
d="M574 289h-516v115h516v-115z" />
    <glyph glyph-name="emdash.case" horiz-adv-x="1076" 
d="M1008 289h-940v115h940v-115z" />
    <glyph glyph-name="guilsinglleft.case" horiz-adv-x="307" 
d="M290 151h-126l-137 194l138 197h125l-136 -198z" />
    <glyph glyph-name="guilsinglright.case" horiz-adv-x="307" 
d="M144 151h-126l135 193l-136 198h126l137 -197z" />
    <glyph glyph-name="G.ss01" horiz-adv-x="774" 
d="M405 -15c-199 0 -366 145 -366 369s170 370 363 370c191 0 297 -116 327 -230l-135 -38c-16 65 -72 140 -192 140c-109 0 -222 -73 -222 -242c0 -159 105 -242 225 -242c94 0 173 50 188 133h-250v120h394c3 -16 3 -33 3 -51c-2 -181 -126 -329 -335 -329z" />
    <glyph glyph-name="a.ss02" horiz-adv-x="612" 
d="M168 248c0 -89 51 -147 123 -147c69 0 121 57 121 147s-51 143 -121 143c-71 0 -123 -53 -123 -143zM413 61v6c-21 -47 -72 -81 -138 -81c-145 0 -241 113 -241 262c0 144 94 258 237 258c88 0 129 -47 141 -75v61h129v-403c0 -44 3 -78 4 -89h-127c-2 11 -5 37 -5 61z
" />
    <glyph glyph-name="agrave.ss02" horiz-adv-x="612" 
d="M168 248c0 -89 51 -147 123 -147c69 0 121 57 121 147s-51 143 -121 143c-71 0 -123 -53 -123 -143zM413 61v6c-21 -47 -72 -81 -138 -81c-145 0 -241 113 -241 262c0 144 94 258 237 258c88 0 129 -47 141 -75v61h129v-403c0 -44 3 -78 4 -89h-127c-2 11 -5 37 -5 61z
M254 551l-136 150h154l90 -150h-108z" />
    <glyph glyph-name="aacute.ss02" horiz-adv-x="612" 
d="M452 701l-136 -150h-107l91 150h152zM168 248c0 -89 51 -147 123 -147c69 0 121 57 121 147s-51 143 -121 143c-71 0 -123 -53 -123 -143zM413 61v6c-21 -47 -72 -81 -138 -81c-145 0 -241 113 -241 262c0 144 94 258 237 258c88 0 129 -47 141 -75v61h129v-403
c0 -44 3 -78 4 -89h-127c-2 11 -5 37 -5 61z" />
    <glyph glyph-name="acircumflex.ss02" horiz-adv-x="612" 
d="M227 552h-104l110 147h132l110 -147h-107l-71 75zM168 248c0 -89 51 -147 123 -147c69 0 121 57 121 147s-51 143 -121 143c-71 0 -123 -53 -123 -143zM413 61v6c-21 -47 -72 -81 -138 -81c-145 0 -241 113 -241 262c0 144 94 258 237 258c88 0 129 -47 141 -75v61h129
v-403c0 -44 3 -78 4 -89h-127c-2 11 -5 37 -5 61z" />
    <glyph glyph-name="atilde.ss02" horiz-adv-x="612" 
d="M168 248c0 -89 51 -147 123 -147c69 0 121 57 121 147s-51 143 -121 143c-71 0 -123 -53 -123 -143zM413 61v6c-21 -47 -72 -81 -138 -81c-145 0 -241 113 -241 262c0 144 94 258 237 258c88 0 129 -47 141 -75v61h129v-403c0 -44 3 -78 4 -89h-127c-2 11 -5 37 -5 61z
M475 696v-18c0 -83 -45 -123 -107 -123c-28 0 -52 9 -71 22l-6 4c-13 8 -23 18 -47 18c-21 0 -34 -12 -35 -43h-82v21c0 81 48 121 109 121c29 0 51 -11 72 -22l6 -4c17 -10 32 -19 48 -19c21 0 33 14 33 43h80z" />
    <glyph glyph-name="adieresis.ss02" horiz-adv-x="612" 
d="M121 628c0 39 31 71 70 71s71 -32 71 -71s-32 -70 -71 -70s-70 31 -70 70zM331 628c0 39 30 71 70 71c39 0 71 -32 71 -71s-32 -70 -71 -70c-40 0 -70 31 -70 70zM168 248c0 -89 51 -147 123 -147c69 0 121 57 121 147s-51 143 -121 143c-71 0 -123 -53 -123 -143z
M413 61v6c-21 -47 -72 -81 -138 -81c-145 0 -241 113 -241 262c0 144 94 258 237 258c88 0 129 -47 141 -75v61h129v-403c0 -44 3 -78 4 -89h-127c-2 11 -5 37 -5 61z" />
    <glyph glyph-name="aring.ss02" horiz-adv-x="612" 
d="M404 648c0 -64 -54 -110 -115 -110s-115 46 -115 110c0 65 54 112 115 112s115 -47 115 -112zM329 648c0 25 -18 42 -41 42s-40 -17 -40 -42c0 -24 17 -41 40 -41s41 17 41 41zM168 248c0 -89 51 -147 123 -147c69 0 121 57 121 147s-51 143 -121 143
c-71 0 -123 -53 -123 -143zM413 61v6c-21 -47 -72 -81 -138 -81c-145 0 -241 113 -241 262c0 144 94 258 237 258c88 0 129 -47 141 -75v61h129v-403c0 -44 3 -78 4 -89h-127c-2 11 -5 37 -5 61z" />
    <glyph glyph-name="r.ss03" horiz-adv-x="397" 
d="M204 492v-79c2 48 40 86 89 86c50 0 89 -39 89 -89s-39 -89 -89 -89c-49 0 -87 37 -89 85v-406h-133v492h133z" />
    <glyph glyph-name="ampersand.ss04" horiz-adv-x="707" 
d="M385 233v114h289v-114h-73v-4c-4 -132 -100 -244 -274 -244c-168 0 -271 92 -271 215c0 99 73 166 145 185c-62 21 -109 79 -109 151c0 107 92 188 222 188c162 0 227 -96 233 -196l-132 -16c-2 58 -34 99 -100 99c-45 0 -89 -30 -89 -80c0 -62 55 -87 92 -87h11v-114
c-60 0 -133 -31 -133 -118c0 -54 41 -110 134 -110c79 0 130 46 133 127v4h-78z" />
    <glyph glyph-name="one.ss05" horiz-adv-x="487" 
d="M39 117h152v317h-150v93c95 1 155 54 168 122h119v-532h148v-117h-437v117z" />
    <glyph glyph-name="registered.ss06" horiz-adv-x="429" 
d="M23 526c0 105 86 191 191 191s192 -86 192 -191s-87 -191 -192 -191s-191 86 -191 191zM76 526c0 -79 60 -141 138 -141s139 62 139 141s-61 141 -139 141s-138 -62 -138 -141zM238 431l-28 65h-12v-65h-55v196h84c39 0 69 -29 69 -66c0 -25 -14 -45 -35 -55l36 -75h-59z
M198 541h16c15 0 25 7 25 20c0 15 -10 20 -25 20h-16v-40z" />
    <glyph glyph-name="caron.alt" horiz-adv-x="213" 
d="M187 709l-72 -198h-89l29 198h132z" />
    <glyph glyph-name="commaaccent" horiz-adv-x="207" 
d="M26 685c0 36 31 64 73 64c45 0 81 -35 81 -86c0 -106 -85 -127 -141 -127v47c48 0 77 20 81 46c-3 -1 -14 -7 -29 -7c-41 0 -65 27 -65 63z" />
    <glyph glyph-name="commaturn" horiz-adv-x="186" 
d="M171 605c0 -37 -31 -64 -73 -64c-46 0 -81 35 -81 86c0 95 82 127 141 127v-48c-49 0 -78 -22 -81 -46c1 1 13 7 28 7c42 0 66 -27 66 -62z" />
    <glyph glyph-name="dieresis.narrow" horiz-adv-x="332" 
d="M15 629c0 37 29 67 68 67c37 0 67 -30 67 -67c0 -39 -30 -68 -67 -68c-39 0 -68 29 -68 68zM183 629c0 37 29 67 66 67c38 0 68 -30 68 -67c0 -39 -30 -68 -68 -68c-37 0 -66 29 -66 68z" />
    <glyph glyph-name="dieresis.uc.narrow" horiz-adv-x="353" 
d="M16 823c0 39 29 69 68 69s70 -30 70 -69s-31 -69 -70 -69s-68 30 -68 69zM200 823c0 39 29 69 68 69s69 -30 69 -69s-30 -69 -69 -69s-68 30 -68 69z" />
    <glyph glyph-name="grave.uc" horiz-adv-x="292" 
d="M155 759l-145 127h163l104 -127h-122z" />
    <glyph glyph-name="dieresis.uc" horiz-adv-x="444" 
d="M21 823c0 40 30 72 71 72s73 -32 73 -72c0 -41 -32 -72 -73 -72s-71 31 -71 72zM279 823c0 40 31 72 72 72s73 -32 73 -72c0 -41 -32 -72 -73 -72s-72 31 -72 72z" />
    <glyph glyph-name="macron.uc" horiz-adv-x="337" 
d="M321 774h-305v100h305v-100z" />
    <glyph glyph-name="acute.uc" horiz-adv-x="292" 
d="M282 886l-145 -127h-122l103 127h164z" />
    <glyph glyph-name="circumflex.uc" horiz-adv-x="411" 
d="M140 759h-121l120 127h136l122 -127h-125l-67 65z" />
    <glyph glyph-name="caron.uc" horiz-adv-x="411" 
d="M19 886h124l66 -64l67 64h121l-122 -127h-136z" />
    <glyph glyph-name="breve.uc" horiz-adv-x="368" 
d="M184 753c-109 0 -161 70 -163 135h102c1 -27 20 -51 61 -51s60 24 61 51h102c-2 -65 -54 -135 -163 -135z" />
    <glyph glyph-name="dotaccent.uc" horiz-adv-x="193" 
d="M16 833c0 45 36 80 80 80c45 0 81 -35 81 -80c0 -44 -36 -79 -81 -79c-44 0 -80 35 -80 79z" />
    <glyph glyph-name="ring.uc" horiz-adv-x="294" 
d="M278 870c0 -74 -61 -127 -131 -127c-69 0 -131 53 -131 127s62 127 131 127c70 0 131 -53 131 -127zM194 870c0 29 -21 47 -47 47c-27 0 -48 -18 -48 -47s21 -48 48 -48c26 0 47 19 47 48z" />
    <glyph glyph-name="tilde.uc" horiz-adv-x="372" 
d="M356 890v-28c0 -73 -46 -110 -101 -110c-30 0 -55 11 -75 24l-6 4c-18 11 -33 20 -48 20c-20 0 -29 -13 -29 -43h-80v27c0 74 47 109 101 109c30 0 55 -11 76 -23l6 -4c18 -9 33 -19 47 -19c16 0 29 9 29 31v12h80z" />
    <glyph glyph-name="hungarumlaut.uc" horiz-adv-x="383" 
d="M196 886l-94 -127h-86l53 127h127zM367 886l-108 -127h-88l67 127h129z" />
    <glyph glyph-name="caron.alt.uc" horiz-adv-x="212" 
d="M195 709l-75 -208h-94l31 208h138z" />
    <glyph glyph-name="undercommaaccent" horiz-adv-x="187" 
d="M16 -102c0 36 31 64 73 64c45 0 81 -35 81 -87c0 -103 -82 -127 -141 -127v48c48 0 77 21 81 47c-4 -2 -14 -7 -29 -7c-41 0 -65 26 -65 62z" />
    </font>
</defs>
</svg>
